<?xml version="1.0" standalone="no"?>
<!DOCTYPE svg PUBLIC "-//W3C//DTD SVG 1.1//EN" "http://www.w3.org/Graphics/SVG/1.1/DTD/svg11.dtd" >
<svg xmlns="http://www.w3.org/2000/svg">
<metadata>
Created by FontPrep 20130207 at Wed Oct 22 20:18:51 2014
 By James Azzopardi
Copyright (c) 2011 by Jan Tonellato. All rights reserved.
</metadata>
<defs>
<font id="4800520214fda50f153cf1091d5e3657" horiz-adv-x='1024' >
  <font-face 
    font-family="Novecentowide-Normal"
    font-weight="400"
    font-stretch="expanded"
    units-per-em="2048"
    panose-1="0 0 5 5 0 0 0 0 0 0"
    ascent="1741"
    descent="-307"
    x-height="1434"
    cap-height="1434"
    bbox="-432 -514 2724 1919"
    underline-thickness="145"
    underline-position="-197"
    unicode-range="U+0020-25CA"
  />
<missing-glyph horiz-adv-x="1406" 
d="M999 1120l111 -110l-297 -295l297 -297l-113 -111l-295 297l-294 -295l-111 111l295 295l-295 295l111 108l294 -293zM389 41h627q78 0 114 36t37 120v1040q0 84 -41 120t-131 36h-585q-96 0 -134 -35t-38 -121v-1040q-1 -156 151 -156zM190 174v1086q0 80 50 126t125 48
h675q76 0 125 -48t49 -126v-1086q0 -82 -48 -128t-126 -46h-675q-79 0 -127 46t-48 128z" />
    <glyph glyph-name=".notdef" horiz-adv-x="1406" 
d="M999 1120l111 -110l-297 -295l297 -297l-113 -111l-295 297l-294 -295l-111 111l295 295l-295 295l111 108l294 -293zM389 41h627q78 0 114 36t37 120v1040q0 84 -41 120t-131 36h-585q-96 0 -134 -35t-38 -121v-1040q-1 -156 151 -156zM190 174v1086q0 80 50 126t125 48
h675q76 0 125 -48t49 -126v-1086q0 -82 -48 -128t-126 -46h-675q-79 0 -127 46t-48 128z" />
    <glyph glyph-name=".null" horiz-adv-x="0" 
 />
    <glyph glyph-name="nonmarkingreturn" horiz-adv-x="681" 
 />
    <glyph glyph-name="space" unicode=" " horiz-adv-x="512" 
 />
    <glyph glyph-name="exclam" unicode="!" horiz-adv-x="548" 
d="M190 0v322h168v-322h-168zM190 467v967h168v-967h-168z" />
    <glyph glyph-name="quotedbl" unicode="&#x22;" horiz-adv-x="892" 
d="M539 989v445h163v-445h-163zM190 989v445h164v-445h-164z" />
    <glyph glyph-name="numbersign" unicode="#" horiz-adv-x="1757" 
d="M983 510l221 432h-448l-217 -432h444zM1626 942h-260l-217 -432h258l-74 -141h-254l-186 -369h-170l188 369h-444l-186 -369h-170l188 369h-240l76 141h236l221 432h-240l76 141h238l178 351h160l-177 -351h451l178 351h158l-176 -351h262z" />
    <glyph glyph-name="dollar" unicode="$" horiz-adv-x="1220" 
d="M600 1315q-140 1 -230 -63q-89 -64 -89 -178t153 -177q107 -47 162 -60q55 -14 61 -16q7 -3 49 -15t92 -30t123 -55t115 -78t75 -107q32 -66 32 -147q0 -167 -123 -281t-326 -133v-159h-166v161q-186 23 -306 136t-150 280l161 43q15 -133 119 -223t266 -90t256 74
q92 74 92 177t-55 154q-31 29 -67 57t-192 74q-155 46 -218 68q-164 57 -230 123q-36 35 -65 93t-28 130q0 152 115 257q116 105 302 128v160h166v-162q164 -23 280 -124t146 -253l-159 -43q-23 129 -122 204t-239 75z" />
    <glyph glyph-name="percent" unicode="%" horiz-adv-x="1826" 
d="M1430 104q110 0 178 86t68 210t-68 210t-178 86t-179 -86q-67 -86 -67 -210t68 -210t178 -86zM1430 -16q-166 0 -268 118q-101 119 -101 297t101 298q102 120 268 120t267 -120t101 -298q0 -179 -101 -297t-267 -118zM397 737q111 0 179 86t67 210q0 124 -68 210
q-69 86 -179 86t-178 -86t-66 -210q0 -124 67 -210t178 -86zM362 0l979 1434h121l-977 -1434h-123zM397 616q-166 0 -267 119t-101 297t101 298t267 120q165 0 267 -120t102 -298t-102 -297t-267 -119z" />
    <glyph glyph-name="ampersand" unicode="&#x26;" horiz-adv-x="1452" 
d="M989 512v162h-381q-162 0 -258 -69t-96 -199t99 -208t255 -79q207 0 294 98t87 295zM1415 809v-135h-266v-168q0 -535 -541 -535q-231 0 -375 119q-143 119 -143 311q0 143 90 235t219 105v2q-106 15 -192 99t-86 232t119 268t333 120t349 -108t172 -301l-146 -41
q-74 305 -354 305q-86 0 -148 -27q-62 -26 -94 -68q-57 -76 -57 -174q0 -97 84 -168t237 -71h799z" />
    <glyph glyph-name="quotesingle" unicode="'" horiz-adv-x="544" 
d="M190 989v445h164v-445h-164z" />
    <glyph glyph-name="parenleft" unicode="(" horiz-adv-x="737" 
d="M258 714q0 -370 101 -577t313 -280l-49 -154q-404 142 -504 671q-29 155 -29 341q1 821 533 1011l49 -155q-210 -74 -312 -280q-102 -207 -102 -577z" />
    <glyph glyph-name="parenright" unicode=")" horiz-adv-x="741" 
d="M651 715q0 -529 -224 -798q-124 -149 -308 -214l-49 154q211 75 312 281t101 577t-101 577t-312 279l49 155q532 -190 532 -1011z" />
    <glyph glyph-name="asterisk" unicode="*" horiz-adv-x="1071" 
d="M477 1434h113v-269l254 82l35 -108l-256 -76l161 -219l-90 -68l-159 225l-156 -225l-92 68l159 219l-256 76l37 108l250 -82v269z" />
    <glyph glyph-name="plus" unicode="+" 
d="M1190 799v-142h-397v-399h-152v399h-399v142h397v393h152v-393h399z" />
    <glyph glyph-name="comma" unicode="," horiz-adv-x="448" 
d="M121 76q0 44 32 72q33 28 75 28t72 -34t30 -104t-46 -158q-46 -87 -114 -152h-74q47 44 81 112t34 127l20 10l-20 3q-33 0 -61 26t-29 70z" />
    <glyph glyph-name="hyphen" unicode="-" horiz-adv-x="1329" 
d="M190 799h949v-142h-949v142z" />
    <glyph glyph-name="period" unicode="." horiz-adv-x="448" 
d="M224 -27q-42 0 -72 30t-29 72q0 41 30 71q29 30 71 30t72 -31t30 -73t-30 -70q-30 -29 -72 -29z" />
    <glyph glyph-name="slash" unicode="/" horiz-adv-x="966" 
d="M37 0l733 1434h160l-721 -1434h-172z" />
    <glyph glyph-name="zero" unicode="0" horiz-adv-x="1470" 
d="M1208 717q0 249 -124 415t-350 166t-349 -166t-123 -415q0 -248 123 -415t349 -167t350 167t124 415zM735 1462q199 0 349 -104t223 -272t73 -370q0 -200 -74 -368t-223 -272q-150 -104 -348 -105q-297 0 -471 216q-174 215 -174 529t174 530t471 216z" />
    <glyph glyph-name="one" unicode="1" horiz-adv-x="841" 
d="M651 1434v-1434h-168v973l4 186l2 31h-2l-20 -21q-72 -80 -90 -98l-182 -180l-105 102l442 441h119z" />
    <glyph glyph-name="two" unicode="2" horiz-adv-x="1175" 
d="M1098 158v-158h-996v137q109 89 327 273t327 274q174 145 174 328q0 131 -89 216t-231 85t-235 -74q-92 -74 -127 -201l-156 43q56 185 192 283t340 98t340 -127t136 -321q0 -133 -52 -227q-22 -37 -33 -59t-45 -56t-44 -48q-10 -12 -52 -48t-51 -42q-8 -6 -55 -41
q-47 -36 -49 -38l-391 -301l2 -2h6l86 4l106 2h570z" />
    <glyph glyph-name="three" unicode="3" horiz-adv-x="1222" 
d="M648 1462q220 0 342 -114q124 -114 124 -264t-93 -241t-218 -98v-2q135 -4 232 -92t98 -237q1 -199 -141 -321t-354 -122t-364 114t-184 296l152 41q23 -135 128 -217t259 -82q155 0 243 85t88 211q0 127 -92 191q-94 64 -254 64h-127v137h129q326 0 326 256
q0 96 -80 171t-244 75q-272 -1 -348 -277l-151 41q41 181 175 283t354 102z" />
    <glyph glyph-name="four" unicode="4" horiz-adv-x="1286" 
d="M858 510v449l2 121l4 112v8h-2l-22 -29q-50 -67 -133 -170l-295 -350q-43 -49 -76 -85l-51 -56l2 -2h45l190 2h336zM1210 510v-150h-194v-360h-158v360h-768v121l795 953h131v-924h194z" />
    <glyph glyph-name="five" unicode="5" horiz-adv-x="1202" 
d="M621 936q217 0 361 -135t144 -343t-144 -347t-357 -139t-355 110q-141 111 -178 285l154 41q27 -129 123 -209t245 -80t247 97q97 96 97 244t-97 246t-245 97q-246 0 -321 -180l-145 39l124 772h766v-158h-639l-39 -219q-20 -114 -45 -217l-6 -27l2 -2q35 47 118 86
t190 39z" />
    <glyph glyph-name="six" unicode="6" horiz-adv-x="1214" 
d="M628 809q-166 0 -268 -94t-102 -248t102 -250t266 -96q163 0 264 96t104 250t-98 248t-268 94zM653 950q223 0 363 -140t139 -351q1 -211 -151 -349t-382 -138t-381 138q-151 140 -151 359q0 133 47 247t152 253l354 465h184l-456 -603l2 -2q98 121 280 121z" />
    <glyph glyph-name="seven" unicode="7" horiz-adv-x="1136" 
d="M70 1276v158h1022v-103l-748 -1331h-180l602 1063q48 87 115 186l18 29l-2 2h-12l-131 -4h-684z" />
    <glyph glyph-name="eight" unicode="8" horiz-adv-x="1249" 
d="M624 680q-170 0 -272 -76t-102 -207t101 -210t273 -79t274 79q101 79 101 210t-102 207t-273 76zM301 1081q0 -111 90 -179q89 -68 233 -68q144 2 234 70t90 178t-91 182t-233 72t-233 -72q-90 -72 -90 -183zM1159 395q0 -186 -148 -304t-386 -118t-386 118
q-149 118 -149 288t104 269t240 114v2q-86 8 -183 96t-97 236t132 258q132 108 339 108t339 -108t132 -258q0 -148 -98 -236t-183 -96v-2q139 -16 241 -116t103 -251z" />
    <glyph glyph-name="nine" unicode="9" horiz-adv-x="1226" 
d="M597 1313q-159 0 -267 -90t-107 -258q0 -168 108 -255q107 -87 267 -87t265 91t105 256t-106 254t-265 89zM571 483q-239 1 -375 139t-136 353t153 351q154 136 387 136t385 -132t152 -367q0 -137 -65 -273t-216 -315l-321 -375h-193l516 602l-2 2q-104 -121 -285 -121z
" />
    <glyph glyph-name="colon" unicode=":" horiz-adv-x="448" 
d="M224 -27q-42 0 -72 30t-29 72q0 41 30 71q29 30 71 30t72 -31t30 -73t-30 -70q-30 -29 -72 -29zM224 608q-42 0 -72 30t-29 72q0 42 30 72q29 30 71 29q42 0 72 -31q30 -30 30 -72t-30 -71t-72 -29z" />
    <glyph glyph-name="semicolon" unicode=";" horiz-adv-x="479" 
d="M147 72q0 44 32 72t75 28t73 -34q29 -34 29 -104t-46 -158q-46 -87 -113 -152h-74q47 44 81 112t34 127l20 10l-20 2q-33 0 -62 27t-29 70zM249 608q-42 0 -72 30t-30 72t30 72t72 29q42 0 72 -31q29 -30 29 -72t-30 -71t-71 -29z" />
    <glyph glyph-name="less" unicode="&#x3c;" 
d="M1180 252h-219l-732 500l732 499h219l-721 -499z" />
    <glyph glyph-name="equal" unicode="=" 
d="M242 600h948v-141h-948v141zM242 983h948v-141h-948v141z" />
    <glyph glyph-name="greater" unicode="&#x3e;" 
d="M250 252l721 500l-721 499h219l731 -499l-731 -500h-219z" />
    <glyph glyph-name="question" unicode="?" horiz-adv-x="1173" 
d="M479 0v322h170v-322h-170zM479 467v207q244 110 338 190t94 186t-73 184q-74 77 -240 77q-291 0 -367 -275l-141 41q41 181 177 283q137 102 357 102t341 -116t121 -290t-143 -284q-119 -92 -294 -166v-139h-170z" />
    <glyph glyph-name="at" unicode="@" horiz-adv-x="1628" 
d="M785 436q105 0 174 70t71 196v93q2 100 -69 154q-72 55 -179 55q-106 0 -178 -80t-70 -211t74 -204t177 -73zM1030 1087h117v-548q0 -63 31 -101t82 -39q82 0 126 91t46 231q0 277 -176 459t-443 182q-266 0 -441 -181t-175 -460t176 -467t440 -188q174 0 260 39t118 66
q31 27 34 28l82 -45q-19 -28 -69 -64q-165 -117 -425 -119q-311 0 -517 216q-206 217 -206 535t205 529t518 211t519 -211t206 -530q0 -174 -76 -294t-213 -120q-80 0 -137 49t-65 136l-3 2q-30 -76 -108 -129t-166 -54q-162 0 -265 111t-103 290t102 296q104 117 272 116
q76 0 137 -30t87 -58q26 -29 28 -45h2v96z" />
    <glyph glyph-name="A" unicode="A" horiz-adv-x="1472" 
d="M440 524h592l-227 533l-68 174h-2l-10 -27q-9 -28 -27 -72t-30 -75zM1255 0l-159 375h-719l-160 -375h-180l622 1434h154l623 -1434h-181z" />
    <glyph glyph-name="B" unicode="B" horiz-adv-x="1325" 
d="M358 145h394q135 0 222 76t87 200t-93 204t-227 80h-383v-560zM358 838h338q121 0 200 66t79 164q0 96 -77 158t-202 62h-338v-450zM190 1434h539q184 0 299 -98t115 -255q0 -104 -74 -189t-164 -104v-2q117 -16 223 -118t107 -246q0 -190 -126 -306t-347 -116h-572v1434
z" />
    <glyph glyph-name="C" unicode="C" horiz-adv-x="1558" 
d="M262 718q0 -257 164 -419t408 -162q164 0 299 81t206 216l166 -45q-90 -193 -269 -305t-402 -113q-311 0 -528 212q-216 212 -216 534q0 321 216 533t528 212q209 0 381 -102t270 -275l-170 -43q-74 119 -203 188t-278 68q-248 0 -410 -162t-162 -418z" />
    <glyph glyph-name="D" unicode="D" horiz-adv-x="1626" 
d="M358 158h449q233 0 395 152t162 402q0 252 -165 408t-404 156h-437v-1118zM190 1434h605q313 0 527 -204t214 -518t-211 -513t-518 -199h-617v1434z" />
    <glyph glyph-name="E" unicode="E" horiz-adv-x="1288" 
d="M358 158h801v-158h-969v1434h957v-158h-789v-442h633v-150h-633v-526z" />
    <glyph glyph-name="F" unicode="F" horiz-adv-x="1196" 
d="M1126 1276h-768v-485h613v-152h-613v-639h-168v1434h936v-158z" />
    <glyph glyph-name="G" unicode="G" horiz-adv-x="1628" 
d="M1360 213h-2q-72 -88 -207 -165t-317 -77q-311 0 -528 212q-216 212 -216 534q0 321 216 533t528 212q217 -4 386 -104t265 -273l-170 -43q-74 119 -203 188t-278 68q-248 0 -410 -162t-162 -419q0 -258 165 -420t413 -162q194 0 332 90t188 199v178h-438v139h583v-743
h-147v129l2 50v36z" />
    <glyph glyph-name="H" unicode="H" horiz-adv-x="1501" 
d="M1143 1434h166v-1434h-166v664h-785v-664h-168v1434h168v-613h785v613z" />
    <glyph glyph-name="I" unicode="I" horiz-adv-x="548" 
d="M358 0h-168v1434h168v-1434z" />
    <glyph glyph-name="J" unicode="J" horiz-adv-x="1341" 
d="M1022 1434h168v-840q0 -295 -158 -460t-442 -165q-200 -1 -352 103t-209 268l166 45q43 -121 149 -189t246 -69q208 0 320 121t112 336v850z" />
    <glyph glyph-name="K" unicode="K" horiz-adv-x="1411" 
d="M356 705h2l35 36q35 35 96 97t109 110l485 486h207l-585 -586l628 -848h-198l-543 735l-234 -233v-502h-168v1434h168v-383l-2 -308v-38z" />
    <glyph glyph-name="L" unicode="L" horiz-adv-x="1167" 
d="M358 158h768v-158h-936v1434h168v-1276z" />
    <glyph glyph-name="M" unicode="M" horiz-adv-x="1705" 
d="M1516 1434v-1434h-166v645q0 200 6 428l2 78h-2l-21 -35q-20 -35 -52 -90t-52 -92l-334 -582h-88l-334 582q-20 37 -52 92t-52 90l-21 35h-2l2 -78q6 -228 6 -428v-645h-166v1434h158l357 -607q53 -91 90 -159t47 -86l10 -21h2l10 21q10 18 47 86t90 159l357 607h158z
" />
    <glyph glyph-name="N" unicode="N" horiz-adv-x="1556" 
d="M1198 1434h168v-1434h-158l-637 858q-51 72 -106 150t-82 114l-27 37h-2l2 -49l2 -358v-752h-168v1434h158l637 -856q47 -62 101 -138t85 -116l29 -41h2l-2 53l-2 344v754z" />
    <glyph glyph-name="O" unicode="O" horiz-adv-x="1667" 
d="M262 718q0 -257 163 -420t409 -163t408 163t163 420q0 257 -163 419q-164 161 -410 161t-408 -162t-162 -418zM90 717q0 321 216 533t528 212t529 -212q216 -212 216 -534t-216 -533q-216 -212 -528 -212t-529 212q-216 212 -216 534z" />
    <glyph glyph-name="P" unicode="P" horiz-adv-x="1224" 
d="M358 676h269q174 0 269 80t95 222t-97 220t-267 78h-269v-600zM190 1434h441q250 0 391 -122t141 -335t-142 -336t-390 -123h-273v-518h-168v1434z" />
    <glyph glyph-name="Q" unicode="Q" horiz-adv-x="1667" 
d="M834 135q246 0 408 163t163 420q0 257 -163 419q-164 161 -410 161t-408 -162t-162 -418q0 -257 163 -420t409 -163zM748 -270v245q-283 31 -470 238q-188 207 -188 517t216 520q216 212 528 212t529 -212q216 -212 216 -522t-189 -517t-475 -236v-245h-167z" />
    <glyph glyph-name="R" unicode="R" horiz-adv-x="1304" 
d="M358 684h285q168 0 258 82t90 217t-92 214t-256 79h-285v-592zM627 535h-269v-535h-168v1434h437q250 0 393 -122t143 -331q0 -154 -78 -259t-221 -153l348 -569h-188l-324 537q-23 -2 -73 -2z" />
    <glyph glyph-name="S" unicode="S" horiz-adv-x="1220" 
d="M600 1315q-140 1 -230 -63q-89 -64 -89 -178t153 -177q107 -47 162 -60q55 -14 61 -16q7 -3 49 -15t92 -30t123 -55t115 -78t75 -107q32 -66 32 -147q1 -182 -145 -300t-374 -118t-373 117q-144 117 -179 305l161 43q15 -133 119 -223t266 -90t256 74q92 74 92 177
t-55 154q-31 29 -67 57t-192 74q-155 46 -218 68q-164 57 -230 123q-36 35 -65 93t-28 130q0 168 141 279q141 110 346 110t346 -106t176 -277l-159 -43q-23 129 -122 204t-239 75z" />
    <glyph glyph-name="T" unicode="T" horiz-adv-x="1216" 
d="M45 1434h1126v-158h-481v-1276h-166v1276h-479v158z" />
    <glyph glyph-name="U" unicode="U" horiz-adv-x="1480" 
d="M1161 1434h168v-840q1 -303 -153 -464t-437 -161t-435 161t-152 464v840h167v-842q0 -465 421 -465t421 465v842z" />
    <glyph glyph-name="V" unicode="V" horiz-adv-x="1470" 
d="M1251 1434h181l-613 -1434h-170l-612 1434h182l432 -1026q24 -57 70 -187l12 -33h2l13 31q12 31 32 89t37 100z" />
    <glyph glyph-name="W" unicode="W" horiz-adv-x="2007" 
d="M1780 1434h174l-486 -1434h-147l-238 754q-43 129 -73 256l-6 24h-3l-6 -26q-35 -146 -71 -254l-238 -754h-147l-486 1434h174l324 -969q15 -53 31 -107t24 -77l6 -25h2l7 25q21 87 55 184l254 776h147l254 -776q34 -100 55 -184l7 -25h2l6 25q8 25 23 77t32 107z" />
    <glyph glyph-name="X" unicode="X" horiz-adv-x="1368" 
d="M686 610h-2l-16 -24q-61 -95 -80 -119l-352 -467h-203l549 743l-506 691h203l315 -428l32 -48t42 -61l16 -27h2l19 27q17 27 39 61t30 48l316 428h204l-508 -691l549 -743h-202l-353 467q-19 24 -80 119z" />
    <glyph glyph-name="Y" unicode="Y" horiz-adv-x="1343" 
d="M754 0h-166v705l-555 729h190l361 -469q46 -61 75 -97l13 -16h2q2 0 86 113l358 469h193l-557 -729v-705z" />
    <glyph glyph-name="Z" unicode="Z" horiz-adv-x="1413" 
d="M143 1276v158h1147v-156l-839 -1006l-107 -118l2 -2h10q16 4 65 4l109 2h760v-158h-1167v156l852 1011q18 20 45 48t45 47l18 16l-2 2h-8l-118 -4h-812z" />
    <glyph glyph-name="bracketleft" unicode="[" horiz-adv-x="694" 
d="M362 1595v-1747h275v-157h-447v2062h447v-158h-275z" />
    <glyph glyph-name="backslash" unicode="\" horiz-adv-x="966" 
d="M930 0h-170l-723 1434h160z" />
    <glyph glyph-name="bracketright" unicode="]" horiz-adv-x="714" 
d="M352 1595h-274v158h446v-2062h-446v157h274v1747z" />
    <glyph glyph-name="asciicircum" unicode="^" horiz-adv-x="1341" 
d="M1149 977l-82 -78l-395 408l-398 -408l-84 78l480 481z" />
    <glyph glyph-name="underscore" unicode="_" horiz-adv-x="1560" 
d="M190 0h1180v-131h-1180v131z" />
    <glyph glyph-name="grave" unicode="`" horiz-adv-x="628" 
d="M500 1511l-449 213l64 119l438 -237z" />
    <glyph glyph-name="a" unicode="a" horiz-adv-x="1472" 
d="M440 524h592l-227 533l-68 174h-2l-10 -27q-9 -28 -27 -72t-30 -75zM1255 0l-159 375h-719l-160 -375h-180l622 1434h154l623 -1434h-181z" />
    <glyph glyph-name="b" unicode="b" horiz-adv-x="1325" 
d="M358 145h394q135 0 222 76t87 200t-93 204t-227 80h-383v-560zM358 838h338q121 0 200 66t79 164q0 96 -77 158t-202 62h-338v-450zM190 1434h539q184 0 299 -98t115 -255q0 -104 -74 -189t-164 -104v-2q117 -16 223 -118t107 -246q0 -190 -126 -306t-347 -116h-572v1434
z" />
    <glyph glyph-name="c" unicode="c" horiz-adv-x="1558" 
d="M262 718q0 -257 164 -419t408 -162q164 0 299 81t206 216l166 -45q-90 -193 -269 -305t-402 -113q-311 0 -528 212q-216 212 -216 534q0 321 216 533t528 212q209 0 381 -102t270 -275l-170 -43q-74 119 -203 188t-278 68q-248 0 -410 -162t-162 -418z" />
    <glyph glyph-name="d" unicode="d" horiz-adv-x="1626" 
d="M358 158h449q233 0 395 152t162 402q0 252 -165 408t-404 156h-437v-1118zM190 1434h605q313 0 527 -204t214 -518t-211 -513t-518 -199h-617v1434z" />
    <glyph glyph-name="e" unicode="e" horiz-adv-x="1288" 
d="M358 158h801v-158h-969v1434h957v-158h-789v-442h633v-150h-633v-526z" />
    <glyph glyph-name="f" unicode="f" horiz-adv-x="1196" 
d="M1126 1276h-768v-485h613v-152h-613v-639h-168v1434h936v-158z" />
    <glyph glyph-name="g" unicode="g" horiz-adv-x="1628" 
d="M1360 213h-2q-72 -88 -207 -165t-317 -77q-311 0 -528 212q-216 212 -216 534q0 321 216 533t528 212q217 -4 386 -104t265 -273l-170 -43q-74 119 -203 188t-278 68q-248 0 -410 -162t-162 -419q0 -258 165 -420t413 -162q194 0 332 90t188 199v178h-438v139h583v-743
h-147v129l2 50v36z" />
    <glyph glyph-name="h" unicode="h" horiz-adv-x="1501" 
d="M1143 1434h166v-1434h-166v664h-785v-664h-168v1434h168v-613h785v613z" />
    <glyph glyph-name="i" unicode="i" horiz-adv-x="548" 
d="M358 0h-168v1434h168v-1434z" />
    <glyph glyph-name="j" unicode="j" horiz-adv-x="1341" 
d="M1022 1434h168v-840q0 -295 -158 -460t-442 -165q-200 -1 -352 103t-209 268l166 45q43 -121 149 -189t246 -69q208 0 320 121t112 336v850z" />
    <glyph glyph-name="k" unicode="k" horiz-adv-x="1411" 
d="M356 705h2l35 36q35 35 96 97t109 110l485 486h207l-585 -586l628 -848h-198l-543 735l-234 -233v-502h-168v1434h168v-383l-2 -308v-38z" />
    <glyph glyph-name="l" unicode="l" horiz-adv-x="1167" 
d="M358 158h768v-158h-936v1434h168v-1276z" />
    <glyph glyph-name="m" unicode="m" horiz-adv-x="1705" 
d="M1516 1434v-1434h-166v645q0 200 6 428l2 78h-2l-21 -35q-20 -35 -52 -90t-52 -92l-334 -582h-88l-334 582q-20 37 -52 92t-52 90l-21 35h-2l2 -78q6 -228 6 -428v-645h-166v1434h158l357 -607q53 -91 90 -159t47 -86l10 -21h2l10 21q10 18 47 86t90 159l357 607h158z
" />
    <glyph glyph-name="n" unicode="n" horiz-adv-x="1556" 
d="M1198 1434h168v-1434h-158l-637 858q-51 72 -106 150t-82 114l-27 37h-2l2 -49l2 -358v-752h-168v1434h158l637 -856q47 -62 101 -138t85 -116l29 -41h2l-2 53l-2 344v754z" />
    <glyph glyph-name="o" unicode="o" horiz-adv-x="1667" 
d="M262 718q0 -257 163 -420t409 -163t408 163t163 420q0 257 -163 419q-164 161 -410 161t-408 -162t-162 -418zM90 717q0 321 216 533t528 212t529 -212q216 -212 216 -534t-216 -533q-216 -212 -528 -212t-529 212q-216 212 -216 534z" />
    <glyph glyph-name="p" unicode="p" horiz-adv-x="1224" 
d="M358 676h269q174 0 269 80t95 222t-97 220t-267 78h-269v-600zM190 1434h441q250 0 391 -122t141 -335t-142 -336t-390 -123h-273v-518h-168v1434z" />
    <glyph glyph-name="q" unicode="q" horiz-adv-x="1667" 
d="M834 135q246 0 408 163t163 420q0 257 -163 419q-164 161 -410 161t-408 -162t-162 -418q0 -257 163 -420t409 -163zM748 -270v245q-283 31 -470 238q-188 207 -188 517t216 520q216 212 528 212t529 -212q216 -212 216 -522t-189 -517t-475 -236v-245h-167z" />
    <glyph glyph-name="r" unicode="r" horiz-adv-x="1304" 
d="M358 684h285q168 0 258 82t90 217t-92 214t-256 79h-285v-592zM627 535h-269v-535h-168v1434h437q250 0 393 -122t143 -331q0 -154 -78 -259t-221 -153l348 -569h-188l-324 537q-23 -2 -73 -2z" />
    <glyph glyph-name="s" unicode="s" horiz-adv-x="1220" 
d="M600 1315q-140 1 -230 -63q-89 -64 -89 -178t153 -177q107 -47 162 -60q55 -14 61 -16q7 -3 49 -15t92 -30t123 -55t115 -78t75 -107q32 -66 32 -147q1 -182 -145 -300t-374 -118t-373 117q-144 117 -179 305l161 43q15 -133 119 -223t266 -90t256 74q92 74 92 177
t-55 154q-31 29 -67 57t-192 74q-155 46 -218 68q-164 57 -230 123q-36 35 -65 93t-28 130q0 168 141 279q141 110 346 110t346 -106t176 -277l-159 -43q-23 129 -122 204t-239 75z" />
    <glyph glyph-name="t" unicode="t" horiz-adv-x="1216" 
d="M45 1434h1126v-158h-481v-1276h-166v1276h-479v158z" />
    <glyph glyph-name="u" unicode="u" horiz-adv-x="1480" 
d="M1161 1434h168v-840q1 -303 -153 -464t-437 -161t-435 161t-152 464v840h167v-842q0 -465 421 -465t421 465v842z" />
    <glyph glyph-name="v" unicode="v" horiz-adv-x="1470" 
d="M1251 1434h181l-613 -1434h-170l-612 1434h182l432 -1026q24 -57 70 -187l12 -33h2l13 31q12 31 32 89t37 100z" />
    <glyph glyph-name="w" unicode="w" horiz-adv-x="2007" 
d="M1780 1434h174l-486 -1434h-147l-238 754q-43 129 -73 256l-6 24h-3l-6 -26q-35 -146 -71 -254l-238 -754h-147l-486 1434h174l324 -969q15 -53 31 -107t24 -77l6 -25h2l7 25q21 87 55 184l254 776h147l254 -776q34 -100 55 -184l7 -25h2l6 25q8 25 23 77t32 107z" />
    <glyph glyph-name="x" unicode="x" horiz-adv-x="1368" 
d="M686 610h-2l-16 -24q-61 -95 -80 -119l-352 -467h-203l549 743l-506 691h203l315 -428l32 -48t42 -61l16 -27h2l19 27q17 27 39 61t30 48l316 428h204l-508 -691l549 -743h-202l-353 467q-19 24 -80 119z" />
    <glyph glyph-name="y" unicode="y" horiz-adv-x="1343" 
d="M754 0h-166v705l-555 729h190l361 -469q46 -61 75 -97l13 -16h2q2 0 86 113l358 469h193l-557 -729v-705z" />
    <glyph glyph-name="z" unicode="z" horiz-adv-x="1413" 
d="M143 1276v158h1147v-156l-839 -1006l-107 -118l2 -2h10q16 4 65 4l109 2h760v-158h-1167v156l852 1011q18 20 45 48t45 47l18 16l-2 2h-8l-118 -4h-812z" />
    <glyph glyph-name="braceleft" unicode="{" horiz-adv-x="798" 
d="M492 1286v-239q0 -262 -111 -326q44 -22 67 -76q42 -99 44 -252v-237q0 -326 274 -326v-156q-211 0 -326 118t-114 358v256q0 195 -87 282q-21 22 -49 33q48 16 91 89t45 226v256q0 240 114 358q115 118 326 117v-155q-274 0 -274 -326z" />
    <glyph glyph-name="bar" unicode="|" horiz-adv-x="520" 
d="M330 -152h-140v1739h140v-1739z" />
    <glyph glyph-name="braceright" unicode="}" horiz-adv-x="798" 
d="M307 1286q0 326 -274 326v155q211 1 325 -117t115 -358v-256q0 -203 88 -283q26 -25 47 -32q-86 -37 -121 -177q-14 -60 -14 -138v-256q0 -240 -115 -358t-325 -118v156q274 0 274 326v237q0 206 66 286q25 33 45 42q-111 63 -111 326v239z" />
    <glyph glyph-name="asciitilde" unicode="~" 
d="M926 580q-96 0 -214 76t-180 75q-62 0 -98 -36q-37 -36 -41 -91l-141 37q14 103 92 161t165 58t157 -39t129 -77t115 -38t95 39q38 38 42 91l143 -39q-14 -101 -91 -159t-173 -58z" />
    <glyph glyph-name="exclamdown" unicode="&#xa1;" horiz-adv-x="548" 
d="M190 967h168v-967h-168v967zM190 1434h168v-322h-168v322z" />
    <glyph glyph-name="cent" unicode="&#xa2;" horiz-adv-x="1161" 
d="M688 -29h-137v213q-199 25 -330 173q-131 149 -131 359t131 357t328 174v215h139v-215q133 -16 241 -91t165 -189l-146 -39q-106 178 -327 178q-167 0 -271 -106t-104 -283t104 -283t271 -106q117 0 207 54t137 153l143 -41q-53 -127 -166 -210t-254 -100v-213z" />
    <glyph glyph-name="sterling" unicode="&#xa3;" horiz-adv-x="1343" 
d="M1251 158v-158h-1061v158q119 26 153 116t17 271l-10 114h-147v138h135l-19 211q-18 188 107 319t317 135q99 2 191 -30t178 -123q86 -92 121 -234l-146 -39q-84 287 -339 277q-129 -4 -202 -94t-61 -224l19 -198h481v-138h-469l10 -110q29 -322 -110 -395l2 -2h12l150 4
l163 2h508z" />
    <glyph glyph-name="currency" unicode="&#xa4;" horiz-adv-x="1339" 
d="M670 1090q-162 0 -274 -113t-112 -278t112 -277t274 -111q162 0 274 112q112 111 113 275q-1 164 -113 278t-274 114zM1208 702q0 -190 -112 -331l149 -150l-88 -88l-147 150q-152 -125 -340 -125t-340 125l-150 -150l-86 88l150 150q-113 145 -113 331t123 336l-145 144
l88 88l147 -146q146 113 328 113t323 -113l148 146l86 -88l-146 -146q125 -144 125 -334z" />
    <glyph glyph-name="yen" unicode="&#xa5;" horiz-adv-x="1341" 
d="M1174 872v-120h-383l-37 -47v-33h420v-121h-420v-551h-166v551h-406v121h406v33l-37 47h-369v120h279l-428 562h190l361 -469q46 -61 75 -97l13 -16h2q2 0 86 113l358 469h193l-428 -562h291z" />
    <glyph glyph-name="brokenbar" unicode="&#xa6;" horiz-adv-x="520" 
d="M190 442h140v-594h-140v594zM190 1587h140v-573h-140v573z" />
    <glyph glyph-name="section" unicode="&#xa7;" horiz-adv-x="1077" 
d="M242 762q0 -38 27 -67t74 -48q46 -19 81 -28t52 -14t55 -13t55 -12l67 -19q87 15 141 59t54 108t-47 97q-75 54 -173 77q-98 22 -153 36q-93 -12 -163 -56t-70 -120zM544 1352q-116 0 -189 -41t-72 -109q0 -39 17 -56q18 -18 30 -28t35 -19t39 -17t52 -15q35 -8 81 -21
q47 -12 111 -27t144 -49t115 -63q90 -74 88 -176q0 -158 -207 -213q209 -86 209 -248q0 -133 -126 -218q-127 -85 -325 -85t-320 85t-154 220l139 37q18 -97 104 -161q85 -64 225 -64t221 51t81 122t-37 99q-37 29 -57 42q-51 33 -289 89q-188 48 -227 73q-38 25 -72 53
q-62 52 -64 143q0 162 217 229q-182 72 -182 213q0 117 119 193q119 75 291 75q173 0 289 -72t147 -192l-141 -37q-16 87 -96 137t-196 50z" />
    <glyph glyph-name="dieresis" unicode="&#xa8;" horiz-adv-x="811" 
d="M636 1567q-42 1 -72 29t-30 70t30 71t72 29t71 -30q29 -28 29 -70t-29 -71q-29 -28 -71 -28zM252 1666q0 -42 -30 -70t-71 -29q-42 1 -71 29t-29 70t29 71t71 29q41 0 71 -30q30 -28 30 -70z" />
    <glyph glyph-name="copyright" unicode="&#xa9;" horiz-adv-x="1667" 
d="M840 1079q102 0 193 -55t132 -141l-106 -31q-31 55 -90 88t-129 33q-111 0 -181 -72q-69 -73 -69 -187t70 -186t180 -71q74 0 137 39t92 102l107 -31q-40 -94 -134 -155t-202 -62q-154 0 -258 104t-105 261q1 156 105 260t258 104zM833 1339q-265 0 -439 -172t-173 -448
q0 -275 173 -449q172 -174 438 -174t440 173t174 449t-174 448q-174 173 -439 173zM90 717q0 321 216 533t529 212q312 0 528 -212t216 -534t-216 -533q-216 -212 -528 -212t-529 212q-216 212 -216 534z" />
    <glyph glyph-name="ordfeminine" unicode="&#xaa;" horiz-adv-x="722" 
d="M41 633h641v-111h-641v111zM319 1186l-63 -170h209l-64 170q-20 58 -32 127l-7 22h-2l-4 -22q-21 -81 -37 -127zM221 928l-59 -160h-117l268 682h95l268 -682h-119l-59 160h-277z" />
    <glyph glyph-name="guillemotleft" unicode="&#xab;" horiz-adv-x="1540" 
d="M1253 1200l95 -94l-392 -385l394 -385l-99 -94l-481 479zM674 1200l94 -94l-391 -385l393 -385l-98 -94l-482 479z" />
    <glyph glyph-name="softhyphen" unicode="&#xad;" horiz-adv-x="1329" 
d="M190 799h949v-142h-949v142z" />
    <glyph glyph-name="registered" unicode="&#xae;" horiz-adv-x="1667" 
d="M713 717h133q162 0 162 134t-162 134h-133v-268zM606 1083h232q126 0 200 -61t74 -168q0 -156 -147 -209l180 -293h-117l-166 275h-149v-275h-107v731zM833 96q265 0 439 173t174 449t-174 448q-174 173 -439 173t-439 -172t-173 -448q0 -276 173 -450q174 -173 439 -173
zM90 717q0 321 216 533t529 212q312 0 528 -212t216 -534t-216 -533q-216 -212 -528 -212t-529 212q-216 212 -216 534z" />
    <glyph glyph-name="macron" unicode="&#xaf;" horiz-adv-x="755" 
d="M37 1546h659v-131h-659v131z" />
    <glyph glyph-name="degree" unicode="&#xb0;" horiz-adv-x="600" 
d="M301 1311q49 0 85 36t36 84q0 49 -36 83t-85 34t-85 -35t-36 -83t36 -83q36 -36 85 -36zM299 1204q-92 0 -158 66q-65 66 -65 158t65 158q66 65 159 65t159 -66q65 -66 65 -158q0 -91 -66 -157t-159 -66z" />
    <glyph glyph-name="plusminus" unicode="&#xb1;" 
d="M242 -20v141h948v-141h-948zM791 799h399v-142h-397v-344h-152v344h-399v142h397v393h152v-393z" />
    <glyph glyph-name="twosuperior" unicode="&#xb2;" horiz-adv-x="673" 
d="M403 1071h220v-106h-568v84l328 264q129 102 129 205q0 68 -48 110t-126 43q-78 0 -122 -42t-66 -120l-109 29q29 116 110 180t197 64t199 -76q82 -76 82 -186q0 -137 -148 -258q-10 -8 -90 -73t-131 -94q-52 -29 -61 -34l2 -2l32 2q77 10 170 10z" />
    <glyph glyph-name="threesuperior" unicode="&#xb3;" horiz-adv-x="677" 
d="M625 1571q-1 -84 -55 -135t-124 -56v-2q78 -4 132 -52t55 -144q0 -96 -81 -164q-81 -70 -202 -70t-208 70t-101 178l106 27q7 -78 61 -124t138 -46t128 42t44 103t-49 98t-127 37h-80v90h80q74 0 121 38t47 90t-41 90t-123 38q-151 1 -186 -155l-105 28q21 104 99 166
t202 64q124 0 197 -64q72 -64 72 -147z" />
    <glyph glyph-name="acute" unicode="&#xb4;" horiz-adv-x="628" 
d="M492 1843l61 -119l-449 -213l-53 95z" />
    <glyph glyph-name="paragraph" unicode="&#xb6;" horiz-adv-x="1327" 
d="M545 1434h592v-1434h-168v1276h-174v-1276h-160v692h-90q-215 0 -335 98t-120 272q0 176 120 274t335 98z" />
    <glyph glyph-name="periodcentered" unicode="&#xb7;" horiz-adv-x="448" 
d="M224 608q-42 0 -72 30t-29 72q0 42 30 72q29 30 71 29q42 0 72 -31q30 -30 30 -72t-30 -71t-72 -29z" />
    <glyph glyph-name="cedilla" unicode="&#xb8;" horiz-adv-x="493" 
d="M201 -483h-150l41 98h109q53 0 84 26q31 25 31 67t-32 69t-83 26h-131l69 197h105l-39 -102q94 2 153 -50q60 -52 60 -141q0 -88 -60 -139t-157 -51z" />
    <glyph glyph-name="onesuperior" unicode="&#xb9;" horiz-adv-x="454" 
d="M258 1442q0 84 12 162v12h-2q-2 0 -19 -24t-48 -52l-97 -96l-75 69l266 252h82v-800h-119v477z" />
    <glyph glyph-name="ordmasculine" unicode="&#xba;" horiz-adv-x="751" 
d="M43 633h668v-111h-668v111zM133 1106q0 -106 70 -176t173 -70t172 70t68 176q0 106 -68 177q-69 71 -172 71t-173 -71t-70 -177zM374 752q-150 0 -252 101t-102 254t102 254t252 101q148 0 252 -101t105 -254q0 -153 -104 -254t-253 -101z" />
    <glyph glyph-name="guillemotright" unicode="&#xbb;" horiz-adv-x="1540" 
d="M866 1200l484 -479l-482 -479l-98 94l393 385l-391 385zM287 1200l483 -479l-481 -479l-99 94l394 385l-391 385z" />
    <glyph glyph-name="onequarter" unicode="&#xbc;" horiz-adv-x="1382" 
d="M1124 293v174l2 101q0 43 4 61v8h-2l-16 -23q-50 -72 -94 -120l-105 -121q-14 -18 -36 -38q-22 -18 -50 -44l2 -2h7l87 4h201zM1337 295v-102h-104v-193h-109v193h-417v81l440 527h86v-506h104zM1098 1434h121l-977 -1434h-121zM258 1110q0 84 12 162v12h-2q-2 0 -19 -24
t-48 -52l-97 -96l-75 70l266 252h82v-801h-119v477z" />
    <glyph glyph-name="onehalf" unicode="&#xbd;" horiz-adv-x="1462" 
d="M1192 106h219v-106h-567v84l327 264q129 102 129 205q0 68 -48 111t-126 43t-122 -42t-66 -120l-109 28q29 115 110 180t198 65t199 -77q82 -76 81 -186q0 -137 -147 -258q-206 -165 -283 -201l2 -2l31 4q33 2 81 5t91 3zM121 0l977 1434h121l-977 -1434h-121zM258 1110
q0 84 12 162v12h-2q-2 0 -19 -24t-48 -52l-97 -96l-75 70l266 252h82v-801h-119v477z" />
    <glyph glyph-name="threequarters" unicode="&#xbe;" horiz-adv-x="1533" 
d="M1276 293v174l2 101q0 43 4 61v8h-2l-16 -23q-53 -76 -95 -120l-104 -121q-14 -18 -40 -40t-46 -42l2 -2h6l87 4h202zM1489 295v-102h-105v-193h-108v193h-418v81l440 527h86v-506h105zM1249 1434h121l-977 -1434h-123zM633 850q0 -96 -81 -164q-81 -70 -202 -70t-208 70
t-101 178l106 27q7 -78 61 -124t138 -46t128 42t44 103q0 60 -49 98t-127 37h-80v91h80q74 0 121 38t47 90t-41 90t-123 38q-152 0 -186 -156l-105 29q21 105 99 167t202 62t197 -64q72 -64 72 -147q-1 -84 -55 -135t-124 -55v-2q78 -5 132 -53t55 -144z" />
    <glyph glyph-name="questiondown" unicode="&#xbf;" horiz-adv-x="1173" 
d="M694 967v-207q-244 -109 -338 -190t-94 -187t74 -183t239 -77q291 0 367 274l141 -41q-41 -180 -177 -282t-356 -102t-342 115q-120 116 -120 290t142 285q119 92 294 165v140h170zM694 1434v-322h-170v322h170z" />
    <glyph glyph-name="Agrave" unicode="&#xc0;" horiz-adv-x="1472" 
d="M440 524h592l-227 533l-68 174h-2l-10 -27q-9 -28 -27 -72t-30 -75zM1255 0l-159 375h-719l-160 -375h-180l622 1434h154l623 -1434h-181zM903 1606l-53 -95l-449 213l64 119z" />
    <glyph glyph-name="Aacute" unicode="&#xc1;" horiz-adv-x="1472" 
d="M440 524h592l-227 533l-68 174h-2l-10 -27q-9 -28 -27 -72t-30 -75zM1255 0l-159 375h-719l-160 -375h-180l622 1434h154l623 -1434h-181zM1038 1724l-448 -213l-53 95l440 237z" />
    <glyph glyph-name="Acircumflex" unicode="&#xc2;" horiz-adv-x="1472" 
d="M440 524h592l-227 533l-68 174h-2l-10 -27q-9 -28 -27 -72t-30 -75zM1255 0l-159 375h-719l-160 -375h-180l622 1434h154l623 -1434h-181zM733 1735l-256 -215l-86 88l342 288l340 -288l-84 -88z" />
    <glyph glyph-name="Atilde" unicode="&#xc3;" horiz-adv-x="1472" 
d="M440 524h592l-227 533l-68 174h-2l-10 -27q-9 -28 -27 -72t-30 -75zM1255 0l-159 375h-719l-160 -375h-180l622 1434h154l623 -1434h-181zM967 1763h135q2 -92 -62 -152t-163 -61q-63 0 -149 60t-128 59q-43 0 -72 -28t-28 -68h-135q0 92 63 152q62 61 148 61t170 -60
t123 -59q40 -1 69 27t29 69z" />
    <glyph glyph-name="Adieresis" unicode="&#xc4;" horiz-adv-x="1472" 
d="M440 524h592l-227 533l-68 174h-2l-10 -27q-9 -28 -27 -72t-30 -75zM1255 0l-159 375h-719l-160 -375h-180l622 1434h154l623 -1434h-181zM1073 1666q-1 -42 -29 -70t-70 -29q-42 1 -72 29t-30 70t30 71t72 29t70 -30q28 -28 29 -70zM590 1666q0 -42 -30 -70t-72 -29
q-42 1 -70 29t-29 70q0 42 29 71q28 29 70 29t72 -30q30 -28 30 -70z" />
    <glyph glyph-name="Aring" unicode="&#xc5;" horiz-adv-x="1472" 
d="M440 524h592l-227 533l-68 174h-2l-10 -27q-9 -28 -27 -72t-30 -75zM616 1638q0 -49 36 -85q36 -35 85 -35t85 36t36 84q0 49 -36 84t-85 35t-85 -35t-36 -84zM514 1647q0 81 65 147t157 66t160 -66q67 -66 67 -148t-41 -139t-107 -80l621 -1427h-181l-159 375h-719
l-160 -375h-180l620 1427q-63 25 -103 82t-40 138z" />
    <glyph glyph-name="AE" unicode="&#xc6;" horiz-adv-x="2027" 
d="M934 524v752h-164l-18 -43q-20 -51 -97 -234l-206 -475h485zM1100 158h801v-158h-967v375h-551l-164 -375h-182l639 1434h1212v-158h-788v-442h635v-150h-635v-526z" />
    <glyph glyph-name="Ccedilla" unicode="&#xc7;" horiz-adv-x="1558" 
d="M827 -483h-147l39 98h108q53 0 84 26q31 25 31 67t-32 69t-83 26h-129l62 172q-287 27 -478 234q-192 207 -192 519t216 522q216 212 528 212q208 0 380 -101t271 -276l-170 -43q-74 119 -203 188t-278 68q-248 0 -410 -162t-162 -418q0 -257 164 -419t408 -162
q164 0 299 81q134 81 206 216l166 -45q-86 -186 -258 -298t-385 -120l-28 -73q92 2 152 -50t60 -141q0 -88 -60 -139q-62 -51 -159 -51z" />
    <glyph glyph-name="Egrave" unicode="&#xc8;" horiz-adv-x="1288" 
d="M358 158h801v-158h-969v1434h957v-158h-789v-442h633v-150h-633v-526zM846 1606l-53 -95l-449 213l64 119z" />
    <glyph glyph-name="Eacute" unicode="&#xc9;" horiz-adv-x="1288" 
d="M358 158h801v-158h-969v1434h957v-158h-789v-442h633v-150h-633v-526zM981 1724l-449 -213l-53 95l441 237z" />
    <glyph glyph-name="Ecircumflex" unicode="&#xca;" horiz-adv-x="1288" 
d="M358 158h801v-158h-969v1434h957v-158h-789v-442h633v-150h-633v-526zM676 1735l-256 -215l-86 88l342 288l340 -288l-84 -88z" />
    <glyph glyph-name="Edieresis" unicode="&#xcb;" horiz-adv-x="1288" 
d="M358 158h801v-158h-969v1434h957v-158h-789v-442h633v-150h-633v-526zM1016 1666q0 -42 -29 -70t-71 -29q-42 1 -72 29t-29 70q0 42 30 71q29 29 71 29t71 -30q29 -28 29 -70zM431 1567q-42 1 -71 29q-28 28 -28 70t28 71q29 29 71 29t72 -30q29 -28 29 -70t-29 -71
q-30 -28 -72 -28z" />
    <glyph glyph-name="Igrave" unicode="&#xcc;" horiz-adv-x="548" 
d="M358 0h-168v1434h168v-1434zM387 1511l-448 213l63 119l438 -237z" />
    <glyph glyph-name="Iacute" unicode="&#xcd;" horiz-adv-x="548" 
d="M358 0h-168v1434h168v-1434zM514 1843l61 -119l-448 -213l-53 95z" />
    <glyph glyph-name="Icircumflex" unicode="&#xce;" horiz-adv-x="548" 
d="M358 0h-168v1434h168v-1434zM-72 1608l342 288l340 -288l-84 -88l-256 215l-256 -215z" />
    <glyph glyph-name="Idieresis" unicode="&#xcf;" horiz-adv-x="548" 
d="M358 0h-168v1434h168v-1434zM511 1567q-42 1 -72 29q-29 28 -29 70t29 71q30 29 72 29t71 -30q28 -28 28 -70t-28 -71q-29 -28 -71 -28zM127 1666q1 -42 -29 -70t-72 -29q-42 1 -71 29t-29 70t29 71t71 29t72 -30q30 -28 29 -70z" />
    <glyph glyph-name="Eth" unicode="&#xd0;" horiz-adv-x="1636" 
d="M369 158h448q233 0 395 152t162 402q0 252 -165 408t-404 156h-436v-471h364v-152h-364v-495zM201 1434h604q313 0 527 -204t214 -518t-211 -513t-518 -199h-616v653h-111v152h111v629z" />
    <glyph glyph-name="Ntilde" unicode="&#xd1;" horiz-adv-x="1556" 
d="M1198 1434h168v-1434h-158l-637 858q-51 72 -106 150t-82 114l-27 37h-2l2 -49l2 -358v-752h-168v1434h158l637 -856q47 -62 101 -138t85 -116l29 -41h2l-2 53l-2 344v754zM1012 1763h135q3 -92 -61 -152t-164 -61q-62 0 -148 60t-129 59q-43 0 -72 -28t-28 -68h-135
q0 92 63 152q63 61 149 61t169 -60t123 -59q40 -1 69 27t29 69z" />
    <glyph glyph-name="Ograve" unicode="&#xd2;" horiz-adv-x="1667" 
d="M262 718q0 -257 163 -420t409 -163t408 163t163 420q0 257 -163 419q-164 161 -410 161t-408 -162t-162 -418zM90 717q0 321 216 533t528 212t529 -212q216 -212 216 -534t-216 -533q-216 -212 -528 -212t-529 212q-216 212 -216 534zM956 1511l-448 213l63 119l439 -237
z" />
    <glyph glyph-name="Oacute" unicode="&#xd3;" horiz-adv-x="1667" 
d="M262 718q0 -257 163 -420t409 -163t408 163t163 420q0 257 -163 419q-164 161 -410 161t-408 -162t-162 -418zM90 717q0 321 216 533t528 212t529 -212q216 -212 216 -534t-216 -533q-216 -212 -528 -212t-529 212q-216 212 -216 534zM1083 1843l62 -119l-449 -213
l-53 95z" />
    <glyph glyph-name="Ocircumflex" unicode="&#xd4;" horiz-adv-x="1667" 
d="M262 718q0 -257 163 -420t409 -163t408 163t163 420q0 257 -163 419q-164 161 -410 161t-408 -162t-162 -418zM90 717q0 321 216 533t528 212t529 -212q216 -212 216 -534t-216 -533q-216 -212 -528 -212t-529 212q-216 212 -216 534zM498 1608l342 288l340 -288l-84 -88
l-256 215l-256 -215z" />
    <glyph glyph-name="Otilde" unicode="&#xd5;" horiz-adv-x="1667" 
d="M262 718q0 -257 163 -420t409 -163t408 163t163 420q0 257 -163 419q-164 161 -410 161t-408 -162t-162 -418zM90 717q0 321 216 533t528 212t529 -212q216 -212 216 -534t-216 -533q-216 -212 -528 -212t-529 212q-216 212 -216 534zM1073 1763h135q2 -92 -61 -152
t-164 -61q-63 0 -148 60t-128 59q-43 0 -72 -28t-29 -68h-135q-1 92 63 152q64 61 149 61t169 -60t124 -59q40 -1 68 27t29 69z" />
    <glyph glyph-name="Odieresis" unicode="&#xd6;" horiz-adv-x="1667" 
d="M262 718q0 -257 163 -420t409 -163t408 163t163 420q0 257 -163 419q-164 161 -410 161t-408 -162t-162 -418zM90 717q0 321 216 533t528 212t529 -212q216 -212 216 -534t-216 -533q-216 -212 -528 -212t-529 212q-216 212 -216 534zM1180 1666q0 -42 -29 -70t-71 -29
q-42 1 -72 29t-29 70q0 42 30 71q29 29 71 29t71 -30q29 -28 29 -70zM595 1567q-42 1 -71 29q-28 28 -28 70t28 71q29 29 71 29t72 -30q29 -28 29 -70t-29 -71q-30 -28 -72 -28z" />
    <glyph glyph-name="multiply" unicode="&#xd7;" 
d="M1012 1139l110 -111l-297 -295l297 -297l-112 -110l-295 297l-295 -295l-111 110l295 295l-295 295l111 109l295 -293z" />
    <glyph glyph-name="Oslash" unicode="&#xd8;" horiz-adv-x="1667" 
d="M834 135q246 0 408 163q162 162 163 416q0 254 -158 416l-702 -923q127 -72 289 -72zM262 718q0 -257 164 -421l704 926q-133 76 -296 75q-248 0 -410 -162t-162 -418zM1579 722q0 -327 -216 -539t-529 -212q-215 0 -390 105l-75 -101l-119 91l76 100q-236 215 -236 544
q0 328 216 540t528 212q219 0 397 -108l78 102l118 -88l-79 -104q231 -215 231 -542z" />
    <glyph glyph-name="Ugrave" unicode="&#xd9;" horiz-adv-x="1480" 
d="M1161 1434h168v-840q1 -303 -153 -464t-437 -161t-435 161t-152 464v840h167v-842q0 -465 421 -465t421 465v842zM858 1511l-448 213l63 119l438 -237z" />
    <glyph glyph-name="Uacute" unicode="&#xda;" horiz-adv-x="1480" 
d="M1161 1434h168v-840q1 -303 -153 -464t-437 -161t-435 161t-152 464v840h167v-842q0 -465 421 -465t421 465v842zM985 1843l62 -119l-449 -213l-53 95z" />
    <glyph glyph-name="Ucircumflex" unicode="&#xdb;" horiz-adv-x="1480" 
d="M1161 1434h168v-840q1 -303 -153 -464t-437 -161t-435 161t-152 464v840h167v-842q0 -465 421 -465t421 465v842zM399 1608l342 288l340 -288l-84 -88l-256 215l-256 -215z" />
    <glyph glyph-name="Udieresis" unicode="&#xdc;" horiz-adv-x="1480" 
d="M1161 1434h168v-840q1 -303 -153 -464t-437 -161t-435 161t-152 464v840h167v-842q0 -465 421 -465t421 465v842zM982 1567q-42 1 -72 29t-30 70t30 71t72 29t71 -30q29 -28 29 -70t-29 -71q-29 -28 -71 -28zM598 1666q0 -42 -30 -70t-71 -29q-42 1 -71 29t-29 70t29 71
t71 29q41 0 71 -30q30 -28 30 -70z" />
    <glyph glyph-name="Yacute" unicode="&#xdd;" horiz-adv-x="1343" 
d="M754 0h-166v705l-555 729h190l361 -469q46 -61 75 -97l13 -16h2q2 0 86 113l358 469h193l-557 -729v-705zM911 1843l62 -119l-449 -213l-53 95z" />
    <glyph glyph-name="Thorn" unicode="&#xde;" horiz-adv-x="1243" 
d="M358 424h314q139 0 224 82t85 215t-85 216t-224 81h-314v-594zM358 1176h310q215 0 350 -127t135 -328t-135 -328t-350 -127h-310v-266h-168v1434h168v-258z" />
    <glyph glyph-name="germandbls" unicode="&#xdf;" horiz-adv-x="1576" 
d="M358 1276v-1276h-168v1434h1158l-244 -441q-14 -29 -39 -71t-41 -72l-16 -29l2 -2h14q205 2 334 -116t129 -302t-132 -307t-343 -123q-160 0 -292 76t-198 205l160 47q106 -182 324 -182q141 0 227 82t86 203q0 120 -83 204t-232 84h-154v129l164 305q12 25 35 64t36 65
l15 25l-2 2h-8l-95 -4h-637z" />
    <glyph glyph-name="agrave" unicode="&#xe0;" horiz-adv-x="1472" 
d="M440 524h592l-227 533l-68 174h-2l-10 -27q-9 -28 -27 -72t-30 -75zM1255 0l-159 375h-719l-160 -375h-180l622 1434h154l623 -1434h-181zM903 1606l-53 -95l-449 213l64 119z" />
    <glyph glyph-name="aacute" unicode="&#xe1;" horiz-adv-x="1472" 
d="M440 524h592l-227 533l-68 174h-2l-10 -27q-9 -28 -27 -72t-30 -75zM1255 0l-159 375h-719l-160 -375h-180l622 1434h154l623 -1434h-181zM1038 1724l-448 -213l-53 95l440 237z" />
    <glyph glyph-name="acircumflex" unicode="&#xe2;" horiz-adv-x="1472" 
d="M440 524h592l-227 533l-68 174h-2l-10 -27q-9 -28 -27 -72t-30 -75zM1255 0l-159 375h-719l-160 -375h-180l622 1434h154l623 -1434h-181zM733 1735l-256 -215l-86 88l342 288l340 -288l-84 -88z" />
    <glyph glyph-name="atilde" unicode="&#xe3;" horiz-adv-x="1472" 
d="M440 524h592l-227 533l-68 174h-2l-10 -27q-9 -28 -27 -72t-30 -75zM1255 0l-159 375h-719l-160 -375h-180l622 1434h154l623 -1434h-181zM967 1763h135q2 -92 -62 -152t-163 -61q-63 0 -149 60t-128 59q-43 0 -72 -28t-28 -68h-135q0 92 63 152q62 61 148 61t170 -60
t123 -59q40 -1 69 27t29 69z" />
    <glyph glyph-name="adieresis" unicode="&#xe4;" horiz-adv-x="1472" 
d="M440 524h592l-227 533l-68 174h-2l-10 -27q-9 -28 -27 -72t-30 -75zM1255 0l-159 375h-719l-160 -375h-180l622 1434h154l623 -1434h-181zM1073 1666q-1 -42 -29 -70t-70 -29q-42 1 -72 29t-30 70t30 71t72 29t70 -30q28 -28 29 -70zM590 1666q0 -42 -30 -70t-72 -29
q-42 1 -70 29t-29 70q0 42 29 71q28 29 70 29t72 -30q30 -28 30 -70z" />
    <glyph glyph-name="aring" unicode="&#xe5;" horiz-adv-x="1472" 
d="M440 524h592l-227 533l-68 174h-2l-10 -27q-9 -28 -27 -72t-30 -75zM616 1638q0 -49 36 -85q36 -35 85 -35t85 36t36 84q0 49 -36 84t-85 35t-85 -35t-36 -84zM514 1647q0 81 65 147t157 66t160 -66q67 -66 67 -148t-41 -139t-107 -80l621 -1427h-181l-159 375h-719
l-160 -375h-180l620 1427q-63 25 -103 82t-40 138z" />
    <glyph glyph-name="ae" unicode="&#xe6;" horiz-adv-x="2027" 
d="M934 524v752h-164l-18 -43q-20 -51 -97 -234l-206 -475h485zM1100 158h801v-158h-967v375h-551l-164 -375h-182l639 1434h1212v-158h-788v-442h635v-150h-635v-526z" />
    <glyph glyph-name="ccedilla" unicode="&#xe7;" horiz-adv-x="1558" 
d="M827 -483h-147l39 98h108q53 0 84 26q31 25 31 67t-32 69t-83 26h-129l62 172q-287 27 -478 234q-192 207 -192 519t216 522q216 212 528 212q208 0 380 -101t271 -276l-170 -43q-74 119 -203 188t-278 68q-248 0 -410 -162t-162 -418q0 -257 164 -419t408 -162
q164 0 299 81q134 81 206 216l166 -45q-86 -186 -258 -298t-385 -120l-28 -73q92 2 152 -50t60 -141q0 -88 -60 -139q-62 -51 -159 -51z" />
    <glyph glyph-name="egrave" unicode="&#xe8;" horiz-adv-x="1288" 
d="M358 158h801v-158h-969v1434h957v-158h-789v-442h633v-150h-633v-526zM840 1606l-54 -95l-448 213l63 119z" />
    <glyph glyph-name="eacute" unicode="&#xe9;" horiz-adv-x="1288" 
d="M358 158h801v-158h-969v1434h957v-158h-789v-442h633v-150h-633v-526zM975 1724l-449 -213l-53 95l440 237z" />
    <glyph glyph-name="ecircumflex" unicode="&#xea;" horiz-adv-x="1288" 
d="M358 158h801v-158h-969v1434h957v-158h-789v-442h633v-150h-633v-526zM670 1735l-256 -215l-86 88l342 288l340 -288l-84 -88z" />
    <glyph glyph-name="edieresis" unicode="&#xeb;" horiz-adv-x="1288" 
d="M358 158h801v-158h-969v1434h957v-158h-789v-442h633v-150h-633v-526zM1010 1666q0 -42 -29 -70t-71 -29q-42 1 -72 29t-29 70q0 42 30 71q29 29 71 29t71 -30q29 -28 29 -70zM425 1567q-42 1 -71 29q-28 28 -28 70t28 71q29 29 71 29t72 -30q29 -28 29 -70t-29 -71
q-30 -28 -72 -28z" />
    <glyph glyph-name="igrave" unicode="&#xec;" horiz-adv-x="548" 
d="M358 0h-168v1434h168v-1434zM387 1511l-448 213l63 119l438 -237z" />
    <glyph glyph-name="iacute" unicode="&#xed;" horiz-adv-x="548" 
d="M358 0h-168v1434h168v-1434zM514 1843l61 -119l-448 -213l-53 95z" />
    <glyph glyph-name="icircumflex" unicode="&#xee;" horiz-adv-x="548" 
d="M358 0h-168v1434h168v-1434zM-72 1608l342 288l340 -288l-84 -88l-256 215l-256 -215z" />
    <glyph glyph-name="idieresis" unicode="&#xef;" horiz-adv-x="548" 
d="M358 0h-168v1434h168v-1434zM511 1567q-42 1 -72 29q-29 28 -29 70t29 71q30 29 72 29t71 -30q28 -28 28 -70t-28 -71q-29 -28 -71 -28zM127 1666q1 -42 -29 -70t-72 -29q-42 1 -71 29t-29 70t29 71t71 29t72 -30q30 -28 29 -70z" />
    <glyph glyph-name="eth" unicode="&#xf0;" horiz-adv-x="1636" 
d="M369 158h448q233 0 395 152t162 402q0 252 -165 408t-404 156h-436v-471h364v-152h-364v-495zM201 1434h604q313 0 527 -204t214 -518t-211 -513t-518 -199h-616v653h-111v152h111v629z" />
    <glyph glyph-name="ntilde" unicode="&#xf1;" horiz-adv-x="1556" 
d="M1198 1434h168v-1434h-158l-637 858q-51 72 -106 150t-82 114l-27 37h-2l2 -49l2 -358v-752h-168v1434h158l637 -856q47 -62 101 -138t85 -116l29 -41h2l-2 53l-2 344v754zM1012 1763h135q3 -92 -61 -152t-164 -61q-62 0 -148 60t-129 59q-43 0 -72 -28t-28 -68h-135
q0 92 63 152q63 61 149 61t169 -60t123 -59q40 -1 69 27t29 69z" />
    <glyph glyph-name="ograve" unicode="&#xf2;" horiz-adv-x="1667" 
d="M262 718q0 -257 163 -420t409 -163t408 163t163 420q0 257 -163 419q-164 161 -410 161t-408 -162t-162 -418zM90 717q0 321 216 533t528 212t529 -212q216 -212 216 -534t-216 -533q-216 -212 -528 -212t-529 212q-216 212 -216 534zM952 1511l-448 213l63 119l439 -237
z" />
    <glyph glyph-name="oacute" unicode="&#xf3;" horiz-adv-x="1667" 
d="M262 718q0 -257 163 -420t409 -163t408 163t163 420q0 257 -163 419q-164 161 -410 161t-408 -162t-162 -418zM90 717q0 321 216 533t528 212t529 -212q216 -212 216 -534t-216 -533q-216 -212 -528 -212t-529 212q-216 212 -216 534zM1079 1843l62 -119l-449 -213
l-53 95z" />
    <glyph glyph-name="ocircumflex" unicode="&#xf4;" horiz-adv-x="1667" 
d="M262 718q0 -257 163 -420t409 -163t408 163t163 420q0 257 -163 419q-164 161 -410 161t-408 -162t-162 -418zM90 717q0 321 216 533t528 212t529 -212q216 -212 216 -534t-216 -533q-216 -212 -528 -212t-529 212q-216 212 -216 534zM494 1608l342 288l340 -288l-84 -88
l-256 215l-256 -215z" />
    <glyph glyph-name="otilde" unicode="&#xf5;" horiz-adv-x="1667" 
d="M262 718q0 -257 163 -420t409 -163t408 163t163 420q0 257 -163 419q-164 161 -410 161t-408 -162t-162 -418zM90 717q0 321 216 533t528 212t529 -212q216 -212 216 -534t-216 -533q-216 -212 -528 -212t-529 212q-216 212 -216 534zM1069 1763h135q2 -92 -61 -152
t-164 -61q-63 0 -149 60t-128 59q-42 0 -71 -28t-29 -68h-135q0 92 63 152q62 61 148 61t170 -60t124 -59q40 -1 68 27t29 69z" />
    <glyph glyph-name="odieresis" unicode="&#xf6;" horiz-adv-x="1667" 
d="M262 718q0 -257 163 -420t409 -163t408 163t163 420q0 257 -163 419q-164 161 -410 161t-408 -162t-162 -418zM90 717q0 321 216 533t528 212t529 -212q216 -212 216 -534t-216 -533q-216 -212 -528 -212t-529 212q-216 212 -216 534zM1176 1666q0 -42 -29 -70t-71 -29
q-42 1 -72 29t-29 70q0 42 30 71q29 29 71 29t71 -30q29 -28 29 -70zM591 1567q-42 1 -71 29q-28 28 -28 70t28 71q29 29 71 29t72 -30q29 -28 29 -70t-29 -71q-30 -28 -72 -28z" />
    <glyph glyph-name="divide" unicode="&#xf7;" 
d="M803 275q0 -43 -30 -71t-72 -28q-41 0 -71 30t-30 72t30 71q30 30 72 30t71 -31q30 -31 30 -73zM233 799h949v-142h-949v142zM701 1083q-41 0 -71 30t-30 72q0 41 30 71t72 30t71 -31q30 -31 30 -73t-30 -70q-30 -29 -72 -29z" />
    <glyph glyph-name="oslash" unicode="&#xf8;" horiz-adv-x="1667" 
d="M834 135q246 0 408 163q162 162 163 416q0 254 -158 416l-702 -923q127 -72 289 -72zM262 718q0 -257 164 -421l704 926q-133 76 -296 75q-248 0 -410 -162t-162 -418zM1579 722q0 -327 -216 -539t-529 -212q-215 0 -390 105l-75 -101l-119 91l76 100q-236 215 -236 544
q0 328 216 540t528 212q219 0 397 -108l78 102l118 -88l-79 -104q231 -215 231 -542z" />
    <glyph glyph-name="ugrave" unicode="&#xf9;" horiz-adv-x="1480" 
d="M1161 1434h168v-840q1 -303 -153 -464t-437 -161t-435 161t-152 464v840h167v-842q0 -465 421 -465t421 465v842zM858 1511l-448 213l63 119l438 -237z" />
    <glyph glyph-name="uacute" unicode="&#xfa;" horiz-adv-x="1480" 
d="M1161 1434h168v-840q1 -303 -153 -464t-437 -161t-435 161t-152 464v840h167v-842q0 -465 421 -465t421 465v842zM985 1843l62 -119l-449 -213l-53 95z" />
    <glyph glyph-name="ucircumflex" unicode="&#xfb;" horiz-adv-x="1480" 
d="M1161 1434h168v-840q1 -303 -153 -464t-437 -161t-435 161t-152 464v840h167v-842q0 -465 421 -465t421 465v842zM399 1608l342 288l340 -288l-84 -88l-256 215l-256 -215z" />
    <glyph glyph-name="udieresis" unicode="&#xfc;" horiz-adv-x="1480" 
d="M1161 1434h168v-840q1 -303 -153 -464t-437 -161t-435 161t-152 464v840h167v-842q0 -465 421 -465t421 465v842zM982 1567q-42 1 -72 29t-30 70t30 71t72 29t71 -30q29 -28 29 -70t-29 -71q-29 -28 -71 -28zM598 1666q0 -42 -30 -70t-71 -29q-42 1 -71 29t-29 70t29 71
t71 29q41 0 71 -30q30 -28 30 -70z" />
    <glyph glyph-name="yacute" unicode="&#xfd;" horiz-adv-x="1343" 
d="M754 0h-166v705l-555 729h190l361 -469q46 -61 75 -97l13 -16h2q2 0 86 113l358 469h193l-557 -729v-705zM911 1843l62 -119l-449 -213l-53 95z" />
    <glyph glyph-name="thorn" unicode="&#xfe;" horiz-adv-x="1243" 
d="M358 424h314q139 0 224 82t85 215t-85 216t-224 81h-314v-594zM358 1176h310q215 0 350 -127t135 -328t-135 -328t-350 -127h-310v-266h-168v1434h168v-258z" />
    <glyph glyph-name="ydieresis" unicode="&#xff;" horiz-adv-x="1343" 
d="M754 0h-166v705l-555 729h190l361 -469q46 -61 75 -97l13 -16h2q2 0 86 113l358 469h193l-557 -729v-705zM1008 1666q0 -42 -29 -70t-71 -29q-42 1 -72 29t-29 70q0 42 30 71q29 29 71 29t71 -30q29 -28 29 -70zM423 1567q-42 1 -71 29q-28 28 -28 70t28 71q29 29 71 29
t72 -30q29 -28 29 -70t-29 -71q-30 -28 -72 -28z" />
    <glyph glyph-name="Amacron" unicode="&#x100;" horiz-adv-x="1472" 
d="M440 524h592l-227 533l-68 174h-2l-10 -27q-9 -28 -27 -72t-30 -75zM1255 0l-159 375h-719l-160 -375h-180l622 1434h154l623 -1434h-181zM1077 1726v-131h-661v131h661z" />
    <glyph glyph-name="amacron" unicode="&#x101;" horiz-adv-x="1472" 
d="M440 524h592l-227 533l-68 174h-2l-10 -27q-9 -28 -27 -72t-30 -75zM1255 0l-159 375h-719l-160 -375h-180l622 1434h154l623 -1434h-181zM1077 1726v-131h-661v131h661z" />
    <glyph glyph-name="Abreve" unicode="&#x102;" horiz-adv-x="1472" 
d="M440 524h592l-227 533l-68 174h-2l-10 -27q-9 -28 -27 -72t-30 -75zM1255 0l-159 375h-719l-160 -375h-180l622 1434h154l623 -1434h-181zM740 1632q66 0 118 42t66 102h123q-23 -109 -108 -180q-85 -70 -199 -70t-198 70t-106 180h123q15 -60 65 -102t116 -42z" />
    <glyph glyph-name="abreve" unicode="&#x103;" horiz-adv-x="1472" 
d="M440 524h592l-227 533l-68 174h-2l-10 -27q-9 -28 -27 -72t-30 -75zM1255 0l-159 375h-719l-160 -375h-180l622 1434h154l623 -1434h-181zM740 1632q66 0 118 42t66 102h123q-23 -109 -108 -180q-85 -70 -199 -70t-198 70t-106 180h123q15 -60 65 -102t116 -42z" />
    <glyph glyph-name="Aogonek" unicode="&#x104;" horiz-adv-x="1472" 
d="M440 524h592l-227 533l-68 174h-2l-10 -27q-9 -28 -27 -72t-30 -75zM1255 -494q-133 0 -218 77t-85 201t83 204t188 90l-127 297h-719l-160 -375h-180l622 1434h154l623 -1434h-80q-113 0 -197 -52t-84 -163q0 -72 48 -121t130 -49q148 0 211 143l97 -53
q-94 -199 -306 -199z" />
    <glyph glyph-name="aogonek" unicode="&#x105;" horiz-adv-x="1472" 
d="M440 524h592l-227 533l-68 174h-2l-10 -27q-9 -28 -27 -72t-30 -75zM1255 -494q-133 0 -218 77t-85 201t83 204t188 90l-127 297h-719l-160 -375h-180l622 1434h154l623 -1434h-80q-113 0 -197 -52t-84 -163q0 -72 48 -121t130 -49q148 0 211 143l97 -53
q-94 -199 -306 -199z" />
    <glyph glyph-name="Cacute" unicode="&#x106;" horiz-adv-x="1558" 
d="M262 718q0 -257 164 -419t408 -162q164 0 299 81t206 216l166 -45q-90 -193 -269 -305t-402 -113q-311 0 -528 212q-216 212 -216 534q0 321 216 533t528 212q209 0 381 -102t270 -275l-170 -43q-74 119 -203 188t-278 68q-248 0 -410 -162t-162 -418zM1063 1843l61 -119
l-448 -213l-53 95z" />
    <glyph glyph-name="cacute" unicode="&#x107;" horiz-adv-x="1558" 
d="M262 718q0 -257 164 -419t408 -162q164 0 299 81t206 216l166 -45q-90 -193 -269 -305t-402 -113q-311 0 -528 212q-216 212 -216 534q0 321 216 533t528 212q209 0 381 -102t270 -275l-170 -43q-74 119 -203 188t-278 68q-248 0 -410 -162t-162 -418zM1063 1843l61 -119
l-448 -213l-53 95z" />
    <glyph glyph-name="Cdotaccent" unicode="&#x10a;" horiz-adv-x="1558" 
d="M262 718q0 -257 164 -419t408 -162q164 0 299 81t206 216l166 -45q-90 -193 -269 -305t-402 -113q-311 0 -528 212q-216 212 -216 534q0 321 216 533t528 212q209 0 381 -102t270 -275l-170 -43q-74 119 -203 188t-278 68q-248 0 -410 -162t-162 -418zM823 1567
q-41 1 -71 29t-29 69q0 41 30 71q31 30 71 30t69 -30t29 -71t-29 -69t-70 -29z" />
    <glyph glyph-name="cdotaccent" unicode="&#x10b;" horiz-adv-x="1558" 
d="M262 718q0 -257 164 -419t408 -162q164 0 299 81t206 216l166 -45q-90 -193 -269 -305t-402 -113q-311 0 -528 212q-216 212 -216 534q0 321 216 533t528 212q209 0 381 -102t270 -275l-170 -43q-74 119 -203 188t-278 68q-248 0 -410 -162t-162 -418zM823 1567
q-41 1 -71 29t-29 69q0 41 30 71q31 30 71 30t69 -30t29 -71t-29 -69t-70 -29z" />
    <glyph glyph-name="Ccaron" unicode="&#x10c;" horiz-adv-x="1558" 
d="M262 718q0 -257 164 -419t408 -162q164 0 299 81t206 216l166 -45q-90 -193 -269 -305t-402 -113q-311 0 -528 212q-216 212 -216 534q0 321 216 533t528 212q209 0 381 -102t270 -275l-170 -43q-74 119 -203 188t-278 68q-248 0 -410 -162t-162 -418zM481 1780l86 88
l256 -215l256 215l84 -88l-340 -289z" />
    <glyph glyph-name="ccaron" unicode="&#x10d;" horiz-adv-x="1558" 
d="M262 718q0 -257 164 -419t408 -162q164 0 299 81t206 216l166 -45q-90 -193 -269 -305t-402 -113q-311 0 -528 212q-216 212 -216 534q0 321 216 533t528 212q209 0 381 -102t270 -275l-170 -43q-74 119 -203 188t-278 68q-248 0 -410 -162t-162 -418zM481 1780l86 88
l256 -215l256 215l84 -88l-340 -289z" />
    <glyph glyph-name="Dcaron" unicode="&#x10e;" horiz-adv-x="1626" 
d="M358 158h449q233 0 395 152t162 402q0 252 -165 408t-404 156h-437v-1118zM190 1434h605q313 0 527 -204t214 -518t-211 -513t-518 -199h-617v1434zM440 1780l86 88l256 -215l256 215l84 -88l-340 -289z" />
    <glyph glyph-name="dcaron" unicode="&#x10f;" horiz-adv-x="1626" 
d="M358 158h449q233 0 395 152t162 402q0 252 -165 408t-404 156h-437v-1118zM190 1434h605q313 0 527 -204t214 -518t-211 -513t-518 -199h-617v1434zM440 1780l86 88l256 -215l256 215l84 -88l-340 -289z" />
    <glyph glyph-name="Dcroat" unicode="&#x110;" horiz-adv-x="1636" 
d="M369 158h448q233 0 395 152t162 402q0 252 -165 408t-404 156h-436v-471h364v-152h-364v-495zM201 1434h604q313 0 527 -204t214 -518t-211 -513t-518 -199h-616v653h-111v152h111v629z" />
    <glyph glyph-name="dcroat" unicode="&#x111;" horiz-adv-x="1636" 
d="M369 158h448q233 0 395 152t162 402q0 252 -165 408t-404 156h-436v-471h364v-152h-364v-495zM201 1434h604q313 0 527 -204t214 -518t-211 -513t-518 -199h-616v653h-111v152h111v629z" />
    <glyph glyph-name="Emacron" unicode="&#x112;" horiz-adv-x="1288" 
d="M358 158h801v-158h-969v1434h957v-158h-789v-442h633v-150h-633v-526zM1020 1726v-131h-662v131h662z" />
    <glyph glyph-name="emacron" unicode="&#x113;" horiz-adv-x="1288" 
d="M358 158h801v-158h-969v1434h957v-158h-789v-442h633v-150h-633v-526zM1014 1726v-131h-662v131h662z" />
    <glyph glyph-name="Edotaccent" unicode="&#x116;" horiz-adv-x="1288" 
d="M358 158h801v-158h-969v1434h957v-158h-789v-442h633v-150h-633v-526zM680 1567q-41 1 -71 29t-29 69q0 41 29 71q30 30 71 30t70 -30q28 -30 28 -71t-28 -70q-29 -28 -70 -28z" />
    <glyph glyph-name="edotaccent" unicode="&#x117;" horiz-adv-x="1288" 
d="M358 158h801v-158h-969v1434h957v-158h-789v-442h633v-150h-633v-526zM680 1567q-41 1 -71 29t-29 69q0 41 29 71q30 30 71 30t70 -30q28 -30 28 -71t-28 -70q-29 -28 -70 -28z" />
    <glyph glyph-name="Eogonek" unicode="&#x118;" horiz-adv-x="1288" 
d="M870 -494q-133 0 -218 77t-85 206t97 211h-474v1434h957v-158h-789v-442h633v-150h-633v-526h801v-158h-188q-113 0 -197 -52t-84 -163q0 -72 48 -121t130 -49q148 0 211 143l97 -53q-94 -199 -306 -199z" />
    <glyph glyph-name="eogonek" unicode="&#x119;" horiz-adv-x="1288" 
d="M909 -494q-133 0 -218 77t-85 206t96 211h-512v1434h957v-158h-789v-442h633v-150h-633v-526h801v-158h-149q-113 0 -197 -52t-84 -163q0 -72 48 -121t130 -49q148 0 211 143l96 -53q-94 -199 -305 -199z" />
    <glyph glyph-name="Ecaron" unicode="&#x11a;" horiz-adv-x="1288" 
d="M358 158h801v-158h-969v1434h957v-158h-789v-442h633v-150h-633v-526zM1020 1780l-340 -289l-342 289l86 88l256 -215l256 215z" />
    <glyph glyph-name="ecaron" unicode="&#x11b;" horiz-adv-x="1288" 
d="M358 158h801v-158h-969v1434h957v-158h-789v-442h633v-150h-633v-526zM1014 1780l-340 -289l-342 289l86 88l256 -215l256 215z" />
    <glyph glyph-name="Gcircumflex" unicode="&#x11c;" horiz-adv-x="1628" 
d="M1360 213h-2q-72 -88 -207 -165t-317 -77q-311 0 -528 212q-216 212 -216 534q0 321 216 533t528 212q217 -4 386 -104t265 -273l-170 -43q-74 119 -203 188t-278 68q-248 0 -410 -162t-162 -419q0 -258 165 -420t413 -162q194 0 332 90t188 199v178h-438v139h583v-743
h-147v129l2 50v36zM471 1608l342 288l340 -288l-84 -88l-256 215l-256 -215z" />
    <glyph glyph-name="gcircumflex" unicode="&#x11d;" horiz-adv-x="1628" 
d="M1360 213h-2q-72 -88 -207 -165t-317 -77q-311 0 -528 212q-216 212 -216 534q0 321 216 533t528 212q217 -4 386 -104t265 -273l-170 -43q-74 119 -203 188t-278 68q-248 0 -410 -162t-162 -419q0 -258 165 -420t413 -162q194 0 332 90t188 199v178h-438v139h583v-743
h-147v129l2 50v36zM471 1608l342 288l340 -288l-84 -88l-256 215l-256 -215z" />
    <glyph glyph-name="Gbreve" unicode="&#x11e;" horiz-adv-x="1628" 
d="M1360 213h-2q-72 -88 -207 -165t-317 -77q-311 0 -528 212q-216 212 -216 534q0 321 216 533t528 212q217 -4 386 -104t265 -273l-170 -43q-74 119 -203 188t-278 68q-248 0 -410 -162t-162 -419q0 -258 165 -420t413 -162q194 0 332 90t188 199v178h-438v139h583v-743
h-147v129l2 50v36zM820 1632q67 0 118 42t66 102h122q-24 -109 -108 -180q-84 -70 -198 -70t-198 70t-106 180h123q14 -60 64 -102t117 -42z" />
    <glyph glyph-name="gbreve" unicode="&#x11f;" horiz-adv-x="1628" 
d="M1360 213h-2q-72 -88 -207 -165t-317 -77q-311 0 -528 212q-216 212 -216 534q0 321 216 533t528 212q217 -4 386 -104t265 -273l-170 -43q-74 119 -203 188t-278 68q-248 0 -410 -162t-162 -419q0 -258 165 -420t413 -162q194 0 332 90t188 199v178h-438v139h583v-743
h-147v129l2 50v36zM820 1632q67 0 118 42t66 102h122q-24 -109 -108 -180q-84 -70 -198 -70t-198 70t-106 180h123q14 -60 64 -102t117 -42z" />
    <glyph glyph-name="Gdotaccent" unicode="&#x120;" horiz-adv-x="1628" 
d="M1360 213h-2q-72 -88 -207 -165t-317 -77q-311 0 -528 212q-216 212 -216 534q0 321 216 533t528 212q217 -4 386 -104t265 -273l-170 -43q-74 119 -203 188t-278 68q-248 0 -410 -162t-162 -419q0 -258 165 -420t413 -162q194 0 332 90t188 199v178h-438v139h583v-743
h-147v129l2 50v36zM817 1567q-41 1 -71 29t-29 69q0 41 29 71q30 30 71 30t70 -30t29 -71t-29 -70q-29 -28 -70 -28z" />
    <glyph glyph-name="gdotaccent" unicode="&#x121;" horiz-adv-x="1628" 
d="M1360 213h-2q-72 -88 -207 -165t-317 -77q-311 0 -528 212q-216 212 -216 534q0 321 216 533t528 212q217 -4 386 -104t265 -273l-170 -43q-74 119 -203 188t-278 68q-248 0 -410 -162t-162 -419q0 -258 165 -420t413 -162q194 0 332 90t188 199v178h-438v139h583v-743
h-147v129l2 50v36zM817 1567q-41 1 -71 29t-29 69q0 41 29 71q30 30 71 30t70 -30t29 -71t-29 -70q-29 -28 -70 -28z" />
    <glyph glyph-name="Gcommaaccent" unicode="&#x122;" horiz-adv-x="1628" 
d="M820 -80q42 0 71 -34t29 -102t-46 -152q-46 -85 -110 -146h-72q45 42 79 108t34 123l20 9l-20 2q-33 0 -60 26t-27 69q0 41 30 69t72 28zM1360 213h-2q-72 -88 -207 -165t-317 -77q-311 0 -528 212q-216 212 -216 534q0 321 216 533t528 212q217 -4 386 -104t265 -273
l-170 -43q-74 119 -203 188t-278 68q-248 0 -410 -162t-162 -419q0 -258 165 -420t413 -162q194 0 332 90t188 199v178h-438v139h583v-743h-147v129l2 50v36z" />
    <glyph glyph-name="gcommaaccent" unicode="&#x123;" horiz-adv-x="1628" 
d="M820 -80q42 0 71 -34t29 -102t-46 -152q-46 -85 -110 -146h-72q45 42 79 108t34 123l20 9l-20 2q-33 0 -60 26t-27 69q0 41 30 69t72 28zM1360 213h-2q-72 -88 -207 -165t-317 -77q-311 0 -528 212q-216 212 -216 534q0 321 216 533t528 212q217 -4 386 -104t265 -273
l-170 -43q-74 119 -203 188t-278 68q-248 0 -410 -162t-162 -419q0 -258 165 -420t413 -162q194 0 332 90t188 199v178h-438v139h583v-743h-147v129l2 50v36z" />
    <glyph glyph-name="Hcircumflex" unicode="&#x124;" horiz-adv-x="1501" 
d="M1143 1434h166v-1434h-166v664h-785v-664h-168v1434h168v-613h785v613zM745 1735l-256 -215l-86 88l342 288l340 -288l-84 -88z" />
    <glyph glyph-name="hcircumflex" unicode="&#x125;" horiz-adv-x="1501" 
d="M1143 1434h166v-1434h-166v664h-785v-664h-168v1434h168v-613h785v613zM745 1735l-256 -215l-86 88l342 288l340 -288l-84 -88z" />
    <glyph glyph-name="Hbar" unicode="&#x126;" horiz-adv-x="1501" 
d="M1143 821v314h-785v-314h785zM1442 1278v-143h-133v-1135h-166v664h-785v-664h-168v1135h-131v143h131v156h168v-156h785v156h166v-156h133z" />
    <glyph glyph-name="hbar" unicode="&#x127;" horiz-adv-x="1501" 
d="M1143 821v314h-785v-314h785zM1442 1278v-143h-133v-1135h-166v664h-785v-664h-168v1135h-131v143h131v156h168v-156h785v156h166v-156h133z" />
    <glyph glyph-name="Imacron" unicode="&#x12a;" horiz-adv-x="548" 
d="M358 0h-168v1434h168v-1434zM-47 1726h661v-131h-661v131z" />
    <glyph glyph-name="imacron" unicode="&#x12b;" horiz-adv-x="548" 
d="M358 0h-168v1434h168v-1434zM-47 1726h661v-131h-661v131z" />
    <glyph glyph-name="Iogonek" unicode="&#x12e;" horiz-adv-x="548" 
d="M209 -494q-133 0 -218 77t-85 204t89 207t195 86v1354h168v-1434h-49q-113 0 -197 -52t-83 -163q0 -72 48 -121t130 -49q148 0 211 143l96 -53q-94 -199 -305 -199z" />
    <glyph glyph-name="iogonek" unicode="&#x12f;" horiz-adv-x="548" 
d="M209 -494q-133 0 -218 77t-85 204t89 207t195 86v1354h168v-1434h-49q-113 0 -197 -52t-83 -163q0 -72 48 -121t130 -49q148 0 211 143l96 -53q-94 -199 -305 -199z" />
    <glyph glyph-name="Idotaccent" unicode="&#x130;" horiz-adv-x="548" 
d="M358 0h-168v1434h168v-1434zM274 1567q-40 1 -70 29t-30 69t30 71t70 30t70 -30q29 -30 29 -71t-29 -69t-70 -29z" />
    <glyph glyph-name="dotlessi" unicode="&#x131;" horiz-adv-x="548" 
d="M358 0h-168v1434h168v-1434z" />
    <glyph glyph-name="IJ" unicode="&#x132;" horiz-adv-x="1865" 
d="M1546 1434h168v-840q0 -295 -158 -460t-442 -165q-200 -1 -352 103t-209 268l166 45q43 -121 149 -189t246 -69q209 0 321 121t111 336v850zM358 0h-168v1434h168v-1434z" />
    <glyph glyph-name="ij" unicode="&#x133;" horiz-adv-x="1865" 
d="M1546 1434h168v-840q0 -295 -158 -460t-442 -165q-200 -1 -352 103t-209 268l166 45q43 -121 149 -189t246 -69q209 0 321 121t111 336v850zM358 0h-168v1434h168v-1434z" />
    <glyph glyph-name="Jcircumflex" unicode="&#x134;" horiz-adv-x="1341" 
d="M1022 1434h168v-840q0 -295 -158 -460t-442 -165q-200 -1 -352 103t-209 268l166 45q43 -121 149 -189t246 -69q208 0 320 121t112 336v850zM758 1608l342 288l340 -288l-84 -88l-256 215l-256 -215z" />
    <glyph glyph-name="jcircumflex" unicode="&#x135;" horiz-adv-x="1341" 
d="M1022 1434h168v-840q0 -295 -158 -460t-442 -165q-200 -1 -352 103t-209 268l166 45q43 -121 149 -189t246 -69q208 0 320 121t112 336v850zM758 1608l342 288l340 -288l-84 -88l-256 215l-256 -215z" />
    <glyph glyph-name="Kcommaaccent" unicode="&#x136;" horiz-adv-x="1411" 
d="M604 -177q0 41 29 69t72 28t71 -34t29 -102q0 -68 -45 -152q-45 -85 -111 -146h-71q44 42 78 108t34 123l21 9l-21 2q-34 0 -60 26t-26 69zM356 705h2l35 36q35 35 96 97t109 110l485 486h207l-585 -586l628 -848h-198l-543 735l-234 -233v-502h-168v1434h168v-383
l-2 -308v-38z" />
    <glyph glyph-name="kcommaaccent" unicode="&#x137;" horiz-adv-x="1411" 
d="M723 -80q43 0 72 -34t29 -102t-46 -152q-45 -85 -110 -146h-72q45 42 79 108t34 123l20 9l-20 2q-33 0 -60 26t-27 69q0 41 30 69q28 28 71 28zM356 705h2l35 36q35 35 96 97t109 110l485 486h207l-585 -586l628 -848h-198l-543 735l-234 -233v-502h-168v1434h168v-383
l-2 -308v-38z" />
    <glyph glyph-name="Lacute" unicode="&#x139;" horiz-adv-x="1167" 
d="M358 158h768v-158h-936v1434h168v-1276zM518 1843l62 -119l-449 -213l-53 95z" />
    <glyph glyph-name="lacute" unicode="&#x13a;" horiz-adv-x="1167" 
d="M358 158h768v-158h-936v1434h168v-1276zM518 1843l62 -119l-449 -213l-53 95z" />
    <glyph glyph-name="Lcommaaccent" unicode="&#x13b;" horiz-adv-x="1167" 
d="M551 -177q0 41 29 69q30 28 72 28t71 -34t29 -102t-45 -152q-45 -85 -111 -146h-72q45 42 79 108t34 123l20 9l-20 2q-33 0 -59 26t-27 69zM358 158h768v-158h-936v1434h168v-1276z" />
    <glyph glyph-name="lcommaaccent" unicode="&#x13c;" horiz-adv-x="1167" 
d="M528 -177q0 41 29 69t72 28t71 -34t29 -102q0 -68 -45 -152q-45 -85 -111 -146h-71q45 42 79 108t33 123l21 9l-21 2q-34 0 -60 26t-26 69zM358 158h768v-158h-936v1434h168v-1276z" />
    <glyph glyph-name="Lcaron" unicode="&#x13d;" horiz-adv-x="1167" 
d="M358 158h768v-158h-936v1434h168v-1276zM612 1360q0 43 32 72q32 28 75 28t72 -34t29 -104t-47 -158q-46 -87 -111 -150h-74q47 42 81 110t33 127l21 11l-21 2q-34 0 -62 26t-28 70z" />
    <glyph glyph-name="lcaron" unicode="&#x13e;" horiz-adv-x="1167" 
d="M358 158h768v-158h-936v1434h168v-1276zM645 1475q43 0 73 -34q30 -35 30 -105t-46 -158t-114 -152h-74q47 43 81 112t34 128l22 10l-22 2q-33 0 -61 27t-28 69t31 72q31 29 74 29z" />
    <glyph glyph-name="Ldot" unicode="&#x13f;" horiz-adv-x="1167" 
d="M778 682q-42 0 -70 30t-28 70t29 71q29 30 69 30t70 -30q29 -30 29 -71q0 -40 -29 -70t-70 -30zM358 158h768v-158h-936v1434h168v-1276z" />
    <glyph glyph-name="ldot" unicode="&#x140;" horiz-adv-x="1167" 
d="M778 682q-42 0 -70 30t-28 70t29 71q29 30 69 30t70 -30q29 -30 29 -71q0 -40 -29 -70t-70 -30zM358 158h768v-158h-936v1434h168v-1276z" />
    <glyph glyph-name="Lslash" unicode="&#x141;" horiz-adv-x="1167" 
d="M358 158h768v-158h-936v1434h168v-689l570 291v-159l-570 -289v-430z" />
    <glyph glyph-name="lslash" unicode="&#x142;" horiz-adv-x="1167" 
d="M358 158h768v-158h-936v1434h168v-689l570 291v-159l-570 -289v-430z" />
    <glyph glyph-name="Nacute" unicode="&#x143;" horiz-adv-x="1556" 
d="M1198 1434h168v-1434h-158l-637 858q-51 72 -106 150t-82 114l-27 37h-2l2 -49l2 -358v-752h-168v1434h158l637 -856q47 -62 101 -138t85 -116l29 -41h2l-2 53l-2 344v754zM1022 1843l61 -119l-448 -213l-53 95z" />
    <glyph glyph-name="nacute" unicode="&#x144;" horiz-adv-x="1556" 
d="M1198 1434h168v-1434h-158l-637 858q-51 72 -106 150t-82 114l-27 37h-2l2 -49l2 -358v-752h-168v1434h158l637 -856q47 -62 101 -138t85 -116l29 -41h2l-2 53l-2 344v754zM1022 1843l61 -119l-448 -213l-53 95z" />
    <glyph glyph-name="Ncommaaccent" unicode="&#x145;" horiz-adv-x="1556" 
d="M692 -177q0 41 29 69t72 28t71 -34t29 -102q0 -68 -45 -152q-45 -85 -111 -146h-71q44 42 78 108t34 123l21 9l-21 2q-34 0 -60 26t-26 69zM1198 1434h168v-1434h-158l-637 858q-51 72 -106 150t-82 114l-27 37h-2l2 -49l2 -358v-752h-168v1434h158l637 -856
q47 -62 101 -138t85 -116l29 -41h2l-2 53l-2 344v754z" />
    <glyph glyph-name="ncommaaccent" unicode="&#x146;" horiz-adv-x="1556" 
d="M692 -177q0 41 29 69t72 28t71 -34t29 -102q0 -68 -45 -152q-45 -85 -111 -146h-71q44 42 78 108t34 123l21 9l-21 2q-34 0 -60 26t-26 69zM1198 1434h168v-1434h-158l-637 858q-51 72 -106 150t-82 114l-27 37h-2l2 -49l2 -358v-752h-168v1434h158l637 -856
q47 -62 101 -138t85 -116l29 -41h2l-2 53l-2 344v754z" />
    <glyph glyph-name="Ncaron" unicode="&#x147;" horiz-adv-x="1556" 
d="M1198 1434h168v-1434h-158l-637 858q-51 72 -106 150t-82 114l-27 37h-2l2 -49l2 -358v-752h-168v1434h158l637 -856q47 -62 101 -138t85 -116l29 -41h2l-2 53l-2 344v754zM440 1780l86 88l256 -215l256 215l84 -88l-340 -289z" />
    <glyph glyph-name="ncaron" unicode="&#x148;" horiz-adv-x="1556" 
d="M1198 1434h168v-1434h-158l-637 858q-51 72 -106 150t-82 114l-27 37h-2l2 -49l2 -358v-752h-168v1434h158l637 -856q47 -62 101 -138t85 -116l29 -41h2l-2 53l-2 344v754zM440 1780l86 88l256 -215l256 215l84 -88l-340 -289z" />
    <glyph glyph-name="Eng" unicode="&#x14a;" horiz-adv-x="1556" 
d="M1198 1434h168v-1434q0 -182 -106 -300t-271 -118h-84v139h72q104 0 168 77q63 77 63 202l-637 858q-51 72 -106 150t-82 114l-27 37h-2l2 -49l2 -358v-752h-168v1434h158l637 -856q47 -62 101 -138t85 -116l29 -41h2l-2 53l-2 344v754z" />
    <glyph glyph-name="eng" unicode="&#x14b;" horiz-adv-x="1556" 
d="M1198 1434h168v-1434q0 -182 -106 -300t-271 -118h-84v139h72q104 0 168 77q63 77 63 202l-637 858q-51 72 -106 150t-82 114l-27 37h-2l2 -49l2 -358v-752h-168v1434h158l637 -856q47 -62 101 -138t85 -116l29 -41h2l-2 53l-2 344v754z" />
    <glyph glyph-name="Omacron" unicode="&#x14c;" horiz-adv-x="1667" 
d="M262 718q0 -257 163 -420t409 -163t408 163t163 420q0 257 -163 419q-164 161 -410 161t-408 -162t-162 -418zM90 717q0 321 216 533t528 212t529 -212q216 -212 216 -534t-216 -533q-216 -212 -528 -212t-529 212q-216 212 -216 534zM522 1726h662v-131h-662v131z" />
    <glyph glyph-name="omacron" unicode="&#x14d;" horiz-adv-x="1667" 
d="M262 718q0 -257 163 -420t409 -163t408 163t163 420q0 257 -163 419q-164 161 -410 161t-408 -162t-162 -418zM90 717q0 321 216 533t528 212t529 -212q216 -212 216 -534t-216 -533q-216 -212 -528 -212t-529 212q-216 212 -216 534zM518 1726h662v-131h-662v131z" />
    <glyph glyph-name="Ohungarumlaut" unicode="&#x150;" horiz-adv-x="1667" 
d="M262 718q0 -257 163 -420t409 -163t408 163t163 420q0 257 -163 419q-164 161 -410 161t-408 -162t-162 -418zM90 717q0 321 216 533t528 212t529 -212q216 -212 216 -534t-216 -533q-216 -212 -528 -212t-529 212q-216 212 -216 534zM1341 1843l62 -119l-449 -213
l-53 95zM932 1843l61 -119l-448 -213l-53 95z" />
    <glyph glyph-name="ohungarumlaut" unicode="&#x151;" horiz-adv-x="1667" 
d="M262 718q0 -257 163 -420t409 -163t408 163t163 420q0 257 -163 419q-164 161 -410 161t-408 -162t-162 -418zM90 717q0 321 216 533t528 212t529 -212q216 -212 216 -534t-216 -533q-216 -212 -528 -212t-529 212q-216 212 -216 534zM1337 1843l62 -119l-449 -213
l-53 95zM928 1843l61 -119l-448 -213l-54 95z" />
    <glyph glyph-name="OE" unicode="&#x152;" horiz-adv-x="2052" 
d="M813 1278q-243 0 -397 -153t-154 -407t154 -408q154 -155 397 -154q87 -1 148 24v1073q-61 25 -148 25zM1124 158h801v-158h-964q-63 -8 -148 -8q-309 0 -516 204t-207 521t207 521t516 204q90 0 148 -8h952v-158h-789v-442h633v-150h-633v-526z" />
    <glyph glyph-name="oe" unicode="&#x153;" horiz-adv-x="2052" 
d="M813 1278q-243 0 -397 -153t-154 -407t154 -408q154 -155 397 -154q87 -1 148 24v1073q-61 25 -148 25zM1124 158h801v-158h-964q-63 -8 -148 -8q-309 0 -516 204t-207 521t207 521t516 204q90 0 148 -8h952v-158h-789v-442h633v-150h-633v-526z" />
    <glyph glyph-name="Racute" unicode="&#x154;" horiz-adv-x="1304" 
d="M358 684h285q168 0 258 82t90 217t-92 214t-256 79h-285v-592zM627 535h-269v-535h-168v1434h437q250 0 393 -122t143 -331q0 -154 -78 -259t-221 -153l348 -569h-188l-324 537q-23 -2 -73 -2zM913 1724l-448 -213l-53 95l440 237z" />
    <glyph glyph-name="racute" unicode="&#x155;" horiz-adv-x="1304" 
d="M358 684h285q168 0 258 82t90 217t-92 214t-256 79h-285v-592zM627 535h-269v-535h-168v1434h437q250 0 393 -122t143 -331q0 -154 -78 -259t-221 -153l348 -569h-188l-324 537q-23 -2 -73 -2zM963 1724l-449 -213l-53 95l440 237z" />
    <glyph glyph-name="Rcommaaccent" unicode="&#x156;" horiz-adv-x="1304" 
d="M643 -80q43 0 72 -34t29 -102t-46 -152q-45 -85 -110 -146h-72q45 42 79 108t34 123l20 9l-20 2q-33 0 -60 26t-27 69q0 41 30 69q28 28 71 28zM358 684h285q168 0 258 82t90 217t-92 214t-256 79h-285v-592zM627 535h-269v-535h-168v1434h437q250 0 393 -122t143 -331
q0 -153 -78 -259t-221 -153l348 -569h-188l-324 537q-23 -2 -73 -2z" />
    <glyph glyph-name="rcommaaccent" unicode="&#x157;" horiz-adv-x="1304" 
d="M684 -80q43 0 72 -34q28 -34 28 -102t-45 -152q-45 -85 -110 -146h-72q45 42 79 108t34 123l20 9l-20 2q-33 0 -60 26q-26 26 -26 69q0 41 28 69t72 28zM358 684h285q168 0 258 82t90 217t-92 214t-256 79h-285v-592zM627 535h-269v-535h-168v1434h437q250 0 393 -122
t143 -331q0 -153 -78 -259t-221 -153l348 -569h-188l-324 537q-23 -2 -73 -2z" />
    <glyph glyph-name="Rcaron" unicode="&#x158;" horiz-adv-x="1304" 
d="M358 684h285q168 0 258 82t90 217t-92 214t-256 79h-285v-592zM627 535h-269v-535h-168v1434h437q250 0 393 -122t143 -331q0 -154 -78 -259t-221 -153l348 -569h-188l-324 537q-23 -2 -73 -2zM952 1780l-340 -289l-342 289l86 88l256 -215l256 215z" />
    <glyph glyph-name="rcaron" unicode="&#x159;" horiz-adv-x="1304" 
d="M358 684h285q168 0 258 82t90 217t-92 214t-256 79h-285v-592zM627 535h-269v-535h-168v1434h437q250 0 393 -122t143 -331q0 -154 -78 -259t-221 -153l348 -569h-188l-324 537q-23 -2 -73 -2zM952 1780l-340 -289l-342 289l86 88l256 -215l256 215z" />
    <glyph glyph-name="Sacute" unicode="&#x15a;" horiz-adv-x="1220" 
d="M600 1315q-140 1 -230 -63q-89 -64 -89 -178t153 -177q107 -47 162 -60q55 -14 61 -16q7 -3 49 -15t92 -30t123 -55t115 -78t75 -107q32 -66 32 -147q1 -182 -145 -300t-374 -118t-373 117q-144 117 -179 305l161 43q15 -133 119 -223t266 -90t256 74q92 74 92 177
t-55 154q-31 29 -67 57t-192 74q-155 46 -218 68q-164 57 -230 123q-36 35 -65 93t-28 130q0 168 141 279q141 110 346 110t346 -106t176 -277l-159 -43q-23 129 -122 204t-239 75zM858 1843l62 -119l-449 -213l-53 95z" />
    <glyph glyph-name="sacute" unicode="&#x15b;" horiz-adv-x="1220" 
d="M600 1315q-140 1 -230 -63q-89 -64 -89 -178t153 -177q107 -47 162 -60q55 -14 61 -16q7 -3 49 -15t92 -30t123 -55t115 -78t75 -107q32 -66 32 -147q1 -182 -145 -300t-374 -118t-373 117q-144 117 -179 305l161 43q15 -133 119 -223t266 -90t256 74q92 74 92 177
t-55 154q-31 29 -67 57t-192 74q-155 46 -218 68q-164 57 -230 123q-36 35 -65 93t-28 130q0 168 141 279q141 110 346 110t346 -106t176 -277l-159 -43q-23 129 -122 204t-239 75zM866 1843l62 -119l-449 -213l-53 95z" />
    <glyph glyph-name="Scircumflex" unicode="&#x15c;" horiz-adv-x="1220" 
d="M600 1315q-140 1 -230 -63q-89 -64 -89 -178t153 -177q107 -47 162 -60q55 -14 61 -16q7 -3 49 -15t92 -30t123 -55t115 -78t75 -107q32 -66 32 -147q1 -182 -145 -300t-374 -118t-373 117q-144 117 -179 305l161 43q15 -133 119 -223t266 -90t256 74q92 74 92 177
t-55 154q-31 29 -67 57t-192 74q-155 46 -218 68q-164 57 -230 123q-36 35 -65 93t-28 130q0 168 141 279q141 110 346 110t346 -106t176 -277l-159 -43q-23 129 -122 204t-239 75zM272 1608l342 288l340 -288l-84 -88l-256 215l-256 -215z" />
    <glyph glyph-name="scircumflex" unicode="&#x15d;" horiz-adv-x="1220" 
d="M600 1315q-140 1 -230 -63q-89 -64 -89 -178t153 -177q107 -47 162 -60q55 -14 61 -16q7 -3 49 -15t92 -30t123 -55t115 -78t75 -107q32 -66 32 -147q1 -182 -145 -300t-374 -118t-373 117q-144 117 -179 305l161 43q15 -133 119 -223t266 -90t256 74q92 74 92 177
t-55 154q-31 29 -67 57t-192 74q-155 46 -218 68q-164 57 -230 123q-36 35 -65 93t-28 130q0 168 141 279q141 110 346 110t346 -106t176 -277l-159 -43q-23 129 -122 204t-239 75zM272 1608l342 288l340 -288l-84 -88l-256 215l-256 -215z" />
    <glyph glyph-name="Scedilla" unicode="&#x15e;" horiz-adv-x="1220" 
d="M600 1315q-140 1 -230 -63q-89 -64 -89 -178t153 -177q107 -47 162 -60q55 -14 61 -16q7 -3 49 -15t92 -30t123 -55t115 -78t75 -107q32 -66 32 -147q0 -170 -125 -285t-334 -131l-29 -75q93 2 153 -50t60 -141q0 -88 -61 -139t-158 -51h-147l39 98h108q53 0 84 26
q31 25 31 67t-32 69t-83 26h-129l60 168q-209 12 -342 128t-166 294l161 43q15 -133 119 -223t266 -90t256 74q92 74 92 177t-55 154q-31 29 -67 57t-192 74q-155 46 -218 68q-164 57 -230 123q-36 35 -65 93t-28 130q0 168 141 279q141 110 346 110t346 -106t176 -277
l-159 -43q-23 129 -122 204t-239 75z" />
    <glyph glyph-name="scedilla" unicode="&#x15f;" horiz-adv-x="1220" 
d="M600 1315q-140 1 -230 -63q-89 -64 -89 -178t153 -177q107 -47 162 -60q55 -14 61 -16q7 -3 49 -15t92 -30t123 -55t115 -78t75 -107q32 -66 32 -147q0 -167 -123 -281t-328 -133l-28 -77q92 2 152 -50t60 -141q0 -88 -60 -139q-62 -51 -159 -51h-147l39 98h108
q53 0 84 26q31 25 31 67t-32 69t-83 26h-129l60 168q-211 8 -347 125t-169 297l161 43q15 -133 119 -223t266 -90t256 74q92 74 92 177t-55 154q-31 29 -67 57t-192 74q-155 46 -218 68q-164 57 -230 123q-36 35 -65 93t-28 130q0 168 141 279q141 110 346 110t346 -106
t176 -277l-159 -43q-23 129 -122 204t-239 75z" />
    <glyph glyph-name="Scaron" unicode="&#x160;" horiz-adv-x="1220" 
d="M600 1315q-140 1 -230 -63q-89 -64 -89 -178t153 -177q107 -47 162 -60q55 -14 61 -16q7 -3 49 -15t92 -30t123 -55t115 -78t75 -107q32 -66 32 -147q1 -182 -145 -300t-374 -118t-373 117q-144 117 -179 305l161 43q15 -133 119 -223t266 -90t256 74q92 74 92 177
t-55 154q-31 29 -67 57t-192 74q-155 46 -218 68q-164 57 -230 123q-36 35 -65 93t-28 130q0 168 141 279q141 110 346 110t346 -106t176 -277l-159 -43q-23 129 -122 204t-239 75zM276 1780l86 88l256 -215l256 215l84 -88l-340 -289z" />
    <glyph glyph-name="scaron" unicode="&#x161;" horiz-adv-x="1220" 
d="M600 1315q-140 1 -230 -63q-89 -64 -89 -178t153 -177q107 -47 162 -60q55 -14 61 -16q7 -3 49 -15t92 -30t123 -55t115 -78t75 -107q32 -66 32 -147q1 -182 -145 -300t-374 -118t-373 117q-144 117 -179 305l161 43q15 -133 119 -223t266 -90t256 74q92 74 92 177
t-55 154q-31 29 -67 57t-192 74q-155 46 -218 68q-164 57 -230 123q-36 35 -65 93t-28 130q0 168 141 279q141 110 346 110t346 -106t176 -277l-159 -43q-23 129 -122 204t-239 75zM285 1780l86 88l256 -215l256 215l84 -88l-340 -289z" />
    <glyph glyph-name="Tcedilla" unicode="&#x162;" horiz-adv-x="1216" 
d="M690 0h-39l-39 -102q92 2 152 -50t61 -141q0 -88 -61 -139t-158 -51h-147l39 98h108q53 0 84 26q31 25 31 67t-32 69t-83 26h-129l70 197h-23v1276h-479v158h1126v-158h-481v-1276z" />
    <glyph glyph-name="tcedilla" unicode="&#x163;" horiz-adv-x="1216" 
d="M690 0h-39l-39 -102q92 2 152 -50t61 -141q0 -88 -61 -139t-158 -51h-147l39 98h108q53 0 84 26q31 25 31 67t-32 69t-83 26h-129l70 197h-23v1276h-479v158h1126v-158h-481v-1276z" />
    <glyph glyph-name="Tcaron" unicode="&#x164;" horiz-adv-x="1216" 
d="M45 1434h1126v-158h-481v-1276h-166v1276h-479v158zM961 1780l-340 -289l-342 289l86 88l256 -215l256 215z" />
    <glyph glyph-name="tcaron" unicode="&#x165;" horiz-adv-x="1216" 
d="M45 1434h1126v-158h-481v-1276h-166v1276h-479v158zM961 1780l-340 -289l-342 289l86 88l256 -215l256 215z" />
    <glyph glyph-name="Tbar" unicode="&#x166;" horiz-adv-x="1216" 
d="M1171 1276h-481v-430h254v-131h-254v-715h-166v715h-256v131h256v430h-479v158h1126v-158z" />
    <glyph glyph-name="tbar" unicode="&#x167;" horiz-adv-x="1216" 
d="M1171 1276h-481v-430h254v-131h-254v-715h-166v715h-256v131h256v430h-479v158h1126v-158z" />
    <glyph glyph-name="Umacron" unicode="&#x16a;" horiz-adv-x="1480" 
d="M1161 1434h168v-840q1 -303 -153 -464t-437 -161t-435 161t-152 464v840h167v-842q0 -465 421 -465t421 465v842zM424 1726h661v-131h-661v131z" />
    <glyph glyph-name="umacron" unicode="&#x16b;" horiz-adv-x="1480" 
d="M1161 1434h168v-840q1 -303 -153 -464t-437 -161t-435 161t-152 464v840h167v-842q0 -465 421 -465t421 465v842zM424 1726h661v-131h-661v131z" />
    <glyph glyph-name="Ubreve" unicode="&#x16c;" horiz-adv-x="1480" 
d="M1161 1434h168v-840q1 -303 -153 -464t-437 -161t-435 161t-152 464v840h167v-842q0 -465 421 -465t421 465v842zM749 1632q67 0 117 42t66 102h123q-23 -109 -108 -180q-85 -70 -199 -70t-197 70q-84 70 -107 180h123q15 -60 65 -102t117 -42z" />
    <glyph glyph-name="ubreve" unicode="&#x16d;" horiz-adv-x="1480" 
d="M1161 1434h168v-840q1 -303 -153 -464t-437 -161t-435 161t-152 464v840h167v-842q0 -465 421 -465t421 465v842zM749 1632q67 0 117 42t66 102h123q-23 -109 -108 -180q-85 -70 -199 -70t-197 70q-84 70 -107 180h123q15 -60 65 -102t117 -42z" />
    <glyph glyph-name="Uring" unicode="&#x16e;" horiz-adv-x="1480" 
d="M1161 1434h168v-840q1 -303 -153 -464t-437 -161t-435 161t-152 464v840h167v-842q0 -465 421 -465t421 465v842zM745 1518q49 0 85 36t36 84q0 49 -36 84t-85 35t-85 -35t-36 -84t36 -85q36 -35 85 -35zM971 1636q0 -92 -67 -158t-160 -65q-94 0 -158 66q-64 65 -64 157
t65 158t157 66t160 -66q67 -66 67 -158z" />
    <glyph glyph-name="uring" unicode="&#x16f;" horiz-adv-x="1480" 
d="M1161 1434h168v-840q1 -303 -153 -464t-437 -161t-435 161t-152 464v840h167v-842q0 -465 421 -465t421 465v842zM745 1518q49 0 85 36t36 84q0 49 -36 84t-85 35t-85 -35t-36 -84t36 -85q36 -35 85 -35zM971 1636q0 -92 -67 -158t-160 -65q-94 0 -158 66q-64 65 -64 157
t65 158t157 66t160 -66q67 -66 67 -158z" />
    <glyph glyph-name="Uhungarumlaut" unicode="&#x170;" horiz-adv-x="1480" 
d="M1161 1434h168v-840q1 -303 -153 -464t-437 -161t-435 161t-152 464v840h167v-842q0 -465 421 -465t421 465v842zM1243 1843l62 -119l-449 -213l-53 95zM834 1843l61 -119l-449 -213l-53 95z" />
    <glyph glyph-name="uhungarumlaut" unicode="&#x171;" horiz-adv-x="1480" 
d="M1161 1434h168v-840q1 -303 -153 -464t-437 -161t-435 161t-152 464v840h167v-842q0 -465 421 -465t421 465v842zM1243 1843l62 -119l-449 -213l-53 95zM834 1843l61 -119l-449 -213l-53 95z" />
    <glyph glyph-name="Uogonek" unicode="&#x172;" horiz-adv-x="1480" 
d="M1161 1434h168v-840q1 -252 -107 -407t-311 -199q-96 -35 -151 -82t-55 -123t48 -122q49 -46 117 -46t124 40t83 93l90 -59q-35 -74 -117 -128q-82 -55 -190 -55q-110 0 -193 73t-83 194t114 196q-264 12 -405 172t-141 453v840h167v-842q0 -465 421 -465t421 465v842z
" />
    <glyph glyph-name="uogonek" unicode="&#x173;" horiz-adv-x="1480" 
d="M1161 1434h168v-840q1 -252 -107 -407t-311 -199q-96 -35 -151 -82t-55 -123t48 -122q49 -46 117 -46t124 40t83 93l90 -59q-35 -74 -117 -128q-82 -55 -190 -55q-110 0 -193 73t-83 194t114 196q-264 12 -405 172t-141 453v840h167v-842q0 -465 421 -465t421 465v842z
" />
    <glyph glyph-name="Wcircumflex" unicode="&#x174;" horiz-adv-x="2007" 
d="M1780 1434h174l-486 -1434h-147l-238 754q-43 129 -73 256l-6 24h-3l-6 -26q-35 -146 -71 -254l-238 -754h-147l-486 1434h174l324 -969q15 -53 31 -107t24 -77l6 -25h2l7 25q21 87 55 184l254 776h147l254 -776q34 -100 55 -184l7 -25h2l6 25q8 25 23 77t32 107z
M651 1608l342 288l340 -288l-84 -88l-256 215l-256 -215z" />
    <glyph glyph-name="wcircumflex" unicode="&#x175;" horiz-adv-x="2007" 
d="M1780 1434h174l-486 -1434h-147l-238 754q-43 129 -73 256l-6 24h-3l-6 -26q-35 -146 -71 -254l-238 -754h-147l-486 1434h174l324 -969q15 -53 31 -107t24 -77l6 -25h2l7 25q21 87 55 184l254 776h147l254 -776q34 -100 55 -184l7 -25h2l6 25q8 25 23 77t32 107z
M657 1608l342 288l340 -288l-84 -88l-256 215l-256 -215z" />
    <glyph glyph-name="Ycircumflex" unicode="&#x176;" horiz-adv-x="1343" 
d="M754 0h-166v705l-555 729h190l361 -469q46 -61 75 -97l13 -16h2q2 0 86 113l358 469h193l-557 -729v-705zM326 1608l342 288l340 -288l-84 -88l-256 215l-256 -215z" />
    <glyph glyph-name="ycircumflex" unicode="&#x177;" horiz-adv-x="1343" 
d="M754 0h-166v705l-555 729h190l361 -469q46 -61 75 -97l13 -16h2q2 0 86 113l358 469h193l-557 -729v-705zM326 1608l342 288l340 -288l-84 -88l-256 215l-256 -215z" />
    <glyph glyph-name="Ydieresis" unicode="&#x178;" horiz-adv-x="1343" 
d="M754 0h-166v705l-555 729h190l361 -469q46 -61 75 -97l13 -16h2q2 0 86 113l358 469h193l-557 -729v-705zM1008 1666q0 -42 -29 -70t-71 -29q-42 1 -72 29t-29 70q0 42 30 71q29 29 71 29t71 -30q29 -28 29 -70zM423 1567q-42 1 -71 29q-28 28 -28 70t28 71q29 29 71 29
t72 -30q29 -28 29 -70t-29 -71q-30 -28 -72 -28z" />
    <glyph glyph-name="Zacute" unicode="&#x179;" horiz-adv-x="1413" 
d="M143 1276v158h1147v-156l-839 -1006l-107 -118l2 -2h10q16 4 65 4l109 2h760v-158h-1167v156l852 1011q18 20 45 48t45 47l18 16l-2 2h-8l-118 -4h-812zM954 1843l62 -119l-449 -213l-53 95z" />
    <glyph glyph-name="zacute" unicode="&#x17a;" horiz-adv-x="1413" 
d="M143 1276v158h1147v-156l-839 -1006l-107 -118l2 -2h10q16 4 65 4l109 2h760v-158h-1167v156l852 1011q18 20 45 48t45 47l18 16l-2 2h-8l-118 -4h-812zM954 1843l62 -119l-449 -213l-53 95z" />
    <glyph glyph-name="Zdotaccent" unicode="&#x17b;" horiz-adv-x="1413" 
d="M143 1276v158h1147v-156l-839 -1006l-107 -118l2 -2h10q16 4 65 4l109 2h760v-158h-1167v156l852 1011q18 20 45 48t45 47l18 16l-2 2h-8l-118 -4h-812zM715 1567q-41 1 -71 29t-30 69t30 71t71 30t69 -30t29 -71q-1 -41 -29 -69t-69 -29z" />
    <glyph glyph-name="zdotaccent" unicode="&#x17c;" horiz-adv-x="1413" 
d="M143 1276v158h1147v-156l-839 -1006l-107 -118l2 -2h10q16 4 65 4l109 2h760v-158h-1167v156l852 1011q18 20 45 48t45 47l18 16l-2 2h-8l-118 -4h-812zM715 1567q-41 1 -71 29t-30 69t30 71t71 30t69 -30t29 -71q-1 -41 -29 -69t-69 -29z" />
    <glyph glyph-name="Zcaron" unicode="&#x17d;" horiz-adv-x="1413" 
d="M143 1276v158h1147v-156l-839 -1006l-107 -118l2 -2h10q16 4 65 4l109 2h760v-158h-1167v156l852 1011q18 20 45 48t45 47l18 16l-2 2h-8l-118 -4h-812zM373 1780l86 88l256 -215l256 215l84 -88l-340 -289z" />
    <glyph glyph-name="zcaron" unicode="&#x17e;" horiz-adv-x="1413" 
d="M143 1276v158h1147v-156l-839 -1006l-107 -118l2 -2h10q16 4 65 4l109 2h760v-158h-1167v156l852 1011q18 20 45 48t45 47l18 16l-2 2h-8l-118 -4h-812zM373 1780l86 88l256 -215l256 215l84 -88l-340 -289z" />
    <glyph glyph-name="Scommaaccent" unicode="&#x218;" horiz-adv-x="1220" 
d="M602 -80q43 0 72 -34q28 -34 28 -102t-45 -152q-45 -85 -110 -146h-72q45 42 79 108t34 123l20 9l-20 2q-33 0 -60 26q-26 26 -26 69q0 41 28 69t72 28zM600 1315q-140 1 -230 -63q-89 -64 -89 -178t153 -177q107 -47 162 -60q55 -14 61 -16q7 -3 49 -15t92 -30t123 -55
t115 -78t75 -107q32 -66 32 -147q1 -182 -145 -300t-374 -118t-373 117q-144 117 -179 305l161 43q15 -133 119 -223t266 -90t256 74q92 74 92 177t-55 154q-31 29 -67 57t-192 74q-155 46 -218 68q-164 57 -230 123q-36 35 -65 93t-28 130q0 168 141 279q141 110 346 110
t346 -106t176 -277l-159 -43q-23 129 -122 204t-239 75z" />
    <glyph glyph-name="scommaaccent" unicode="&#x219;" horiz-adv-x="1220" 
d="M602 -80q43 0 72 -34q28 -34 28 -102t-45 -152q-45 -85 -110 -146h-72q45 42 79 108t34 123l20 9l-20 2q-33 0 -60 26q-26 26 -26 69q0 41 28 69t72 28zM600 1315q-140 1 -230 -63q-89 -64 -89 -178t153 -177q107 -47 162 -60q55 -14 61 -16q7 -3 49 -15t92 -30t123 -55
t115 -78t75 -107q32 -66 32 -147q1 -182 -145 -300t-374 -118t-373 117q-144 117 -179 305l161 43q15 -133 119 -223t266 -90t256 74q92 74 92 177t-55 154q-31 29 -67 57t-192 74q-155 46 -218 68q-164 57 -230 123q-36 35 -65 93t-28 130q0 168 141 279q141 110 346 110
t346 -106t176 -277l-159 -43q-23 129 -122 204t-239 75z" />
    <glyph glyph-name="uni021A" unicode="&#x21a;" horiz-adv-x="1216" 
d="M518 -177q0 41 29 69t71 28t72 -34q29 -34 29 -102t-45 -152q-45 -85 -111 -146h-71q44 42 78 108t34 123l21 9l-21 2q-34 0 -60 26t-26 69zM45 1434h1126v-158h-481v-1276h-166v1276h-479v158z" />
    <glyph glyph-name="uni021B" unicode="&#x21b;" horiz-adv-x="1216" 
d="M481 -177q0 41 29 69t72 28q44 0 72 -34t28 -102t-45 -152q-45 -85 -111 -146h-71q45 42 79 108t33 123l21 9l-21 2q-33 0 -59 26t-27 69zM45 1434h1126v-158h-481v-1276h-166v1276h-479v158z" />
    <glyph glyph-name="dotlessj" unicode="&#x237;" horiz-adv-x="1341" 
d="M1022 1434h168v-840q0 -295 -158 -460t-442 -165q-200 -1 -352 103t-209 268l166 45q43 -121 149 -189t246 -69q208 0 320 121t112 336v850z" />
    <glyph glyph-name="circumflex" unicode="&#x2c6;" horiz-adv-x="776" 
d="M35 1608l342 288l340 -288l-84 -88l-256 215l-256 -215z" />
    <glyph glyph-name="caron" unicode="&#x2c7;" horiz-adv-x="776" 
d="M35 1780l86 88l256 -215l256 215l84 -88l-340 -289z" />
    <glyph glyph-name="breve" unicode="&#x2d8;" horiz-adv-x="681" 
d="M325 1632q67 0 117 42t66 102h123q-23 -109 -108 -180q-85 -70 -199 -70t-197 70q-84 70 -107 180h123q15 -60 65 -102t117 -42z" />
    <glyph glyph-name="dotaccent" unicode="&#x2d9;" horiz-adv-x="325" 
d="M147 1567q-41 1 -71 29t-29 69q0 41 30 71q31 30 71 30t69 -30t29 -71t-29 -69t-70 -29z" />
    <glyph glyph-name="ring" unicode="&#x2da;" horiz-adv-x="548" 
d="M262 1475q49 -1 85 35t36 84t-36 83t-85 35t-84 -34t-35 -83t35 -85t84 -35zM262 1368q-92 0 -158 66t-66 158t66 158q66 65 158 65t159 -66t67 -158q0 -91 -68 -157q-66 -66 -158 -66z" />
    <glyph glyph-name="ogonek" unicode="&#x2db;" horiz-adv-x="1228" 
d="M535 -494q-133 0 -219 77q-85 77 -85 205q-1 128 93 210t202 82l109 -80q-113 0 -197 -52t-84 -163q0 -72 49 -121t132 -49q145 0 208 143l99 -53q-98 -199 -307 -199z" />
    <glyph glyph-name="tilde" unicode="&#x2dc;" horiz-adv-x="864" 
d="M653 1763h135q2 -92 -61 -152t-164 -61q-63 0 -148 60t-128 59q-43 0 -72 -28t-29 -68h-135q-1 92 63 152q64 61 149 61t169 -60t124 -59q40 -1 68 27t29 69z" />
    <glyph glyph-name="hungarumlaut" unicode="&#x2dd;" horiz-adv-x="1038" 
d="M901 1843l62 -119l-449 -213l-53 95zM492 1843l61 -119l-449 -213l-53 95z" />
    <glyph glyph-name="commaaccentcomb" unicode="&#x326;" horiz-adv-x="0" 
d="M221 -82q43 0 71 -33t28 -101t-46 -152q-45 -85 -108 -146h-72q45 44 79 108t34 121l20 11l-20 2q-33 0 -61 26t-27 68q-1 44 29 70t73 26z" />
    <glyph glyph-name="Wgrave" unicode="&#x1e80;" horiz-adv-x="2007" 
d="M1780 1434h174l-486 -1434h-147l-238 754q-43 129 -73 256l-6 24h-3l-6 -26q-35 -146 -71 -254l-238 -754h-147l-486 1434h174l324 -969q15 -53 31 -107t24 -77l6 -25h2l7 25q21 87 55 184l254 776h147l254 -776q34 -100 55 -184l7 -25h2l6 25q8 25 23 77t32 107z
M1110 1511l-448 213l63 119l438 -237z" />
    <glyph glyph-name="wgrave" unicode="&#x1e81;" horiz-adv-x="2007" 
d="M1780 1434h174l-486 -1434h-147l-238 754q-43 129 -73 256l-6 24h-3l-6 -26q-35 -146 -71 -254l-238 -754h-147l-486 1434h174l324 -969q15 -53 31 -107t24 -77l6 -25h2l7 25q21 87 55 184l254 776h147l254 -776q34 -100 55 -184l7 -25h2l6 25q8 25 23 77t32 107z
M1116 1511l-448 213l63 119l438 -237z" />
    <glyph glyph-name="Wacute" unicode="&#x1e82;" horiz-adv-x="2007" 
d="M1780 1434h174l-486 -1434h-147l-238 754q-43 129 -73 256l-6 24h-3l-6 -26q-35 -146 -71 -254l-238 -754h-147l-486 1434h174l324 -969q15 -53 31 -107t24 -77l6 -25h2l7 25q21 87 55 184l254 776h147l254 -776q34 -100 55 -184l7 -25h2l6 25q8 25 23 77t32 107z
M1237 1843l61 -119l-448 -213l-53 95z" />
    <glyph glyph-name="wacute" unicode="&#x1e83;" horiz-adv-x="2007" 
d="M1780 1434h174l-486 -1434h-147l-238 754q-43 129 -73 256l-6 24h-3l-6 -26q-35 -146 -71 -254l-238 -754h-147l-486 1434h174l324 -969q15 -53 31 -107t24 -77l6 -25h2l7 25q21 87 55 184l254 776h147l254 -776q34 -100 55 -184l7 -25h2l6 25q8 25 23 77t32 107z
M1243 1843l62 -119l-449 -213l-53 95z" />
    <glyph glyph-name="Wdieresis" unicode="&#x1e84;" horiz-adv-x="2007" 
d="M1780 1434h174l-486 -1434h-147l-238 754q-43 129 -73 256l-6 24h-3l-6 -26q-35 -146 -71 -254l-238 -754h-147l-486 1434h174l324 -969q15 -53 31 -107t24 -77l6 -25h2l7 25q21 87 55 184l254 776h147l254 -776q34 -100 55 -184l7 -25h2l6 25q8 25 23 77t32 107z
M1234 1567q-42 1 -72 29t-30 70t30 71t72 29t71 -30q29 -28 29 -70t-29 -71q-29 -28 -71 -28zM850 1666q0 -42 -30 -70t-71 -29q-42 1 -71 29t-29 70t29 71t71 29q41 0 71 -30q30 -28 30 -70z" />
    <glyph glyph-name="wdieresis" unicode="&#x1e85;" horiz-adv-x="2007" 
d="M1780 1434h174l-486 -1434h-147l-238 754q-43 129 -73 256l-6 24h-3l-6 -26q-35 -146 -71 -254l-238 -754h-147l-486 1434h174l324 -969q15 -53 31 -107t24 -77l6 -25h2l7 25q21 87 55 184l254 776h147l254 -776q34 -100 55 -184l7 -25h2l6 25q8 25 23 77t32 107z
M1240 1567q-42 1 -72 29t-30 70t30 71t72 29t71 -30q29 -28 29 -70t-29 -71q-29 -28 -71 -28zM856 1666q0 -42 -30 -70t-71 -29q-42 1 -71 29t-29 70t29 71t71 29q41 0 71 -30q30 -28 30 -70z" />
    <glyph glyph-name="Germandbls" unicode="&#x1e9e;" horiz-adv-x="1576" 
d="M358 1276v-1276h-168v1434h1158l-244 -441q-14 -29 -39 -71t-41 -72l-16 -29l2 -2h14q205 2 334 -116t129 -302t-132 -307t-343 -123q-160 0 -292 76t-198 205l160 47q106 -182 324 -182q141 0 227 82t86 203q0 120 -83 204t-232 84h-154v129l164 305q12 25 35 64t36 65
l15 25l-2 2h-8l-95 -4h-637z" />
    <glyph glyph-name="Ygrave" unicode="&#x1ef2;" horiz-adv-x="1343" 
d="M754 0h-166v705l-555 729h190l361 -469q46 -61 75 -97l13 -16h2q2 0 86 113l358 469h193l-557 -729v-705zM784 1511l-448 213l63 119l439 -237z" />
    <glyph glyph-name="ygrave" unicode="&#x1ef3;" horiz-adv-x="1343" 
d="M754 0h-166v705l-555 729h190l361 -469q46 -61 75 -97l13 -16h2q2 0 86 113l358 469h193l-557 -729v-705zM784 1511l-448 213l63 119l439 -237z" />
    <glyph glyph-name="uni2007" unicode="&#x2007;" 
 />
    <glyph glyph-name="uni2009" unicode="&#x2009;" horiz-adv-x="245" 
 />
    <glyph glyph-name="uni200A" unicode="&#x200a;" horiz-adv-x="81" 
 />
    <glyph glyph-name="endash" unicode="&#x2013;" horiz-adv-x="1228" 
d="M190 805h848v-158h-848v158z" />
    <glyph glyph-name="emdash" unicode="&#x2014;" horiz-adv-x="2088" 
d="M190 805h1708v-158h-1708v158z" />
    <glyph glyph-name="quoteleft" unicode="&#x2018;" horiz-adv-x="614" 
d="M190 1152q0 70 47 158q46 87 113 150h74q-47 -42 -81 -110t-34 -129l-20 -9l20 -2q33 0 62 -26t29 -70q0 -43 -32 -72q-32 -28 -75 -28t-73 34t-30 104z" />
    <glyph glyph-name="quoteright" unicode="&#x2019;" horiz-adv-x="614" 
d="M217 1360q0 43 31 72q31 28 74 28q42 0 72 -34t30 -104t-46 -158q-46 -87 -114 -150h-74q47 42 82 110t35 127l21 11l-21 2q-35 0 -63 26t-27 70z" />
    <glyph glyph-name="quotesinglbase" unicode="&#x201a;" horiz-adv-x="614" 
d="M217 76q0 44 31 72t74 28q42 0 72 -34t30 -104t-46 -158q-46 -87 -114 -150h-74q47 42 82 110t35 127l21 10l-21 3q-35 0 -63 26t-27 70z" />
    <glyph glyph-name="quotedblleft" unicode="&#x201c;" horiz-adv-x="991" 
d="M774 1114q0 -43 -31 -72q-31 -28 -73 -28t-73 34q-30 34 -30 104t46 158q46 87 114 150h74q-47 -44 -82 -112t-35 -127l-20 -9l20 -2q34 0 62 -26t28 -70zM190 1152q0 70 47 158q46 87 113 150h74q-47 -42 -81 -110t-34 -129l-20 -9l20 -2q33 0 62 -26t29 -70
q0 -43 -32 -72q-32 -28 -75 -28t-73 34t-30 104z" />
    <glyph glyph-name="quotedblright" unicode="&#x201d;" horiz-adv-x="991" 
d="M592 1360q0 43 32 72q32 28 74 28t73 -34q30 -34 30 -104t-46 -158q-46 -87 -114 -150h-74q47 42 81 110t34 127l20 11l-20 2q-34 0 -62 26t-28 70zM217 1360q0 43 31 72q31 28 74 28q42 0 72 -34t30 -104t-46 -158q-46 -87 -114 -150h-74q47 42 82 110t35 127l21 11
l-21 2q-35 0 -63 26t-27 70z" />
    <glyph glyph-name="quotedblbase" unicode="&#x201e;" horiz-adv-x="962" 
d="M565 76q0 42 31 72t74 30q42 0 72 -34t30 -106t-46 -158q-46 -87 -114 -150h-73q47 44 81 112t35 127l21 8l-21 3q-35 2 -63 28t-27 68zM217 76q0 42 31 72t74 30q42 0 72 -34t30 -106t-46 -158q-46 -87 -114 -150h-74q47 44 82 112t35 127l21 8l-21 3q-35 2 -63 28
t-27 68z" />
    <glyph glyph-name="dagger" unicode="&#x2020;" horiz-adv-x="1024" 
d="M977 1057v-146h-391v-286q0 -265 -10 -445t-11 -180h-108q-5 0 -14 245t-9 380v286h-389v146h389v377h152v-377h391z" />
    <glyph glyph-name="daggerdbl" unicode="&#x2021;" horiz-adv-x="1024" 
d="M586 911v-297h391v-145h-393q-8 -469 -19 -469h-108q-2 0 -10 174t-11 295h-391v145h389v297h-389v146h389v377h152v-377h391v-146h-391z" />
    <glyph glyph-name="bullet" unicode="&#x2022;" horiz-adv-x="774" 
d="M387 530q-82 0 -139 58t-58 139q0 82 58 138q58 57 139 57q82 0 138 -56q57 -56 57 -139q0 -81 -56 -139t-139 -58z" />
    <glyph glyph-name="ellipsis" unicode="&#x2026;" horiz-adv-x="1499" 
d="M1292 -29q-36 0 -60 25q-24 26 -24 60t25 58t59 24t60 -24q24 -24 24 -59t-24 -59t-60 -25zM739 -29q-35 0 -59 25q-24 26 -25 60q0 34 25 58q26 24 60 24t59 -24t25 -59t-26 -59q-24 -24 -59 -25zM207 -29q-35 0 -60 25q-25 26 -25 60t25 58t60 24t59 -24t25 -59
q-1 -35 -25 -59t-59 -25z" />
    <glyph glyph-name="perthousand" unicode="&#x2030;" horiz-adv-x="2813" 
d="M2355 104q111 0 179 86t67 210q0 124 -68 210q-69 86 -179 86t-178 -86t-67 -210q-1 -124 67 -210t179 -86zM1491 104q111 0 179 86t67 210q0 124 -68 210q-69 86 -179 86t-178 -86t-67 -210q-1 -124 67 -210t179 -86zM2355 -16q-166 0 -267 118t-101 297q0 178 101 298
t267 120t267 -120q102 -120 102 -298q0 -179 -102 -297t-267 -118zM1491 -16q-166 0 -267 118t-102 297q0 178 102 298t267 120q166 0 267 -120q102 -120 102 -298q0 -179 -102 -297t-267 -118zM459 737q111 0 179 86t67 210q0 124 -68 210q-69 86 -179 86t-178 -86
t-67 -210q-1 -124 67 -210t179 -86zM424 0l979 1434h121l-977 -1434h-123zM459 616q-166 0 -268 119q-101 119 -101 297t101 298t267 120t268 -120q101 -120 101 -298t-101 -297t-267 -119z" />
    <glyph glyph-name="guilsinglleft" unicode="&#x2039;" horiz-adv-x="960" 
d="M674 1200l94 -94l-391 -385l393 -385l-98 -94l-482 479z" />
    <glyph glyph-name="guilsinglright" unicode="&#x203a;" horiz-adv-x="960" 
d="M287 1200l483 -479l-481 -479l-99 94l394 385l-391 385z" />
    <glyph glyph-name="fraction" unicode="&#x2044;" horiz-adv-x="237" 
d="M-432 0l979 1434h121l-977 -1434h-123z" />
    <glyph glyph-name="Euro" unicode="&#x20ac;" horiz-adv-x="1640" 
d="M920 -25q-268 0 -469 160t-254 418h-107v119h92q-2 14 -2 44t2 44h-92v117h107q51 257 253 419t470 162q206 0 378 -100t269 -275l-172 -43q-72 121 -198 188t-277 66q-201 0 -354 -114t-201 -303h577v-117h-596q-2 -14 -2 -44t2 -44h596v-119h-577q51 -186 203 -299
t334 -113t316 79q133 79 203 214l166 -43q-88 -190 -267 -303t-400 -113z" />
    <glyph glyph-name="uni20B9" unicode="&#x20b9;" horiz-adv-x="1187" 
d="M1098 1434v-134h-262q63 -53 96 -122h166v-131h-123q4 -41 4 -64q0 -195 -135 -319t-348 -129l440 -535h-203l-440 539v133h192q139 0 231 90q91 90 91 221q0 33 -6 64h-611v131h551q-92 123 -256 122h-295v134h908z" />
    <glyph glyph-name="afii61352" unicode="&#x2116;" horiz-adv-x="2291" 
d="M1567 633h667v-111h-667v111zM1657 1106q-1 -106 69 -176t173 -70t173 70q69 70 68 176q0 106 -68 177t-172 71t-174 -71t-69 -177zM1198 1434h168v-1434h-158l-637 858q-51 72 -106 150t-82 114l-27 37h-2l2 -49l2 -358v-752h-168v1434h158l637 -856q47 -62 101 -138
t85 -116l29 -41h2l-2 53l-2 344v754zM1544 1107q0 153 102 254t251 101t253 -101t104 -254t-104 -254t-253 -101t-251 101t-102 254z" />
    <glyph glyph-name="trademark" unicode="&#x2122;" horiz-adv-x="1609" 
d="M1425 1434v-666h-110v270q0 69 8 193l2 31h-2l-35 -59q-18 -32 -35 -58l-135 -223h-57l-135 223q-18 29 -33 55t-37 62h-2l2 -31q6 -93 6 -193v-270h-108v666h104l170 -283q39 -63 59 -113h3q28 62 61 113l170 283h104zM45 1325v109h586v-109h-238v-557h-110v557h-238z
" />
    <glyph glyph-name="oneeighth" unicode="&#x215b;" horiz-adv-x="1449" 
d="M1315 223q0 63 -54 103q-55 40 -139 41q-84 -1 -137 -41t-53 -104t53 -104t138 -40t139 41q53 41 53 104zM1123 729q-73 0 -119 -35t-46 -90t46 -91t120 -35q72 1 118 36t46 91t-46 90t-119 34zM1421 212q0 -93 -83 -160q-83 -66 -215 -66t-215 66t-83 160q1 93 57 146
t119 66v2q-45 8 -94 57t-49 132t75 143t191 59q116 0 190 -59q75 -60 75 -142q-1 -82 -51 -132t-93 -58v-2q63 -12 119 -66t57 -146zM119 0l979 1434h121l-977 -1434h-123zM258 1110q0 84 12 162v12h-2q-2 0 -19 -24t-48 -52l-97 -96l-75 70l266 252h82v-801h-119v477z" />
    <glyph glyph-name="threeeighths" unicode="&#x215c;" horiz-adv-x="1601" 
d="M1274 367q-84 -1 -138 -41t-53 -104q-1 -64 53 -104t139 -40t138 41t53 104t-54 103t-138 41zM1110 604q0 -55 46 -91t119 -35t119 36t46 91t-46 90t-119 34t-119 -35t-46 -90zM1573 212q0 -93 -83 -160q-83 -66 -215 -66t-215 66t-83 160q0 93 56 146t120 66v2
q-45 8 -94 57t-49 132t74 143q75 59 191 59q117 0 191 -59q74 -60 74 -142t-50 -132t-93 -58v-2q63 -12 119 -66t57 -146zM270 0l979 1434h121l-977 -1434h-123zM356 1450q124 0 197 -64q72 -64 72 -147q-1 -84 -55 -135t-124 -55v-2q78 -5 132 -53t55 -144q0 -96 -81 -164
q-81 -70 -202 -70t-208 70t-101 178l106 27q7 -78 61 -124t138 -46t128 42t44 103q0 60 -49 98t-127 37h-80v91h80q74 0 121 38t47 90t-41 90t-123 38q-151 0 -186 -156l-105 29q21 105 99 167t202 62z" />
    <glyph glyph-name="fiveeighths" unicode="&#x215d;" horiz-adv-x="1568" 
d="M1241 367q-84 0 -137 -40t-53 -104q0 -65 53 -105t138 -40t138 41q54 41 54 104t-54 103t-139 41zM1077 604q0 -55 46 -91t119 -35t119 36t46 91t-46 90t-119 34t-119 -35t-46 -90zM1540 212q0 -93 -83 -160q-83 -66 -215 -66t-215 66t-83 160q0 93 56 146t120 66v2
q-45 8 -94 57t-49 132t75 143q74 60 190 59q116 0 191 -59q75 -60 75 -142t-51 -132q-50 -50 -93 -58v-2q64 -12 120 -66t56 -146zM1217 1434h120l-977 -1434h-122zM625 894q0 -120 -82 -199t-206 -79t-202 68t-94 172l109 29q10 -76 56 -120t127 -44t131 48t50 126t-50 127
t-122 49t-116 -27t-60 -63l-98 27l69 426h441v-107h-351l-20 -104q-8 -45 -18 -74q-11 -29 -19 -53l2 -2q57 72 175 72t198 -76t80 -196z" />
    <glyph glyph-name="seveneighths" unicode="&#x215e;" horiz-adv-x="1363" 
d="M1229 223q0 63 -54 103q-55 40 -139 41q-84 -1 -137 -41t-53 -104t53 -104t138 -40t139 41q53 41 53 104zM1037 729q-73 0 -119 -35t-46 -90t46 -91t120 -35q72 1 118 36t46 91t-46 90t-119 34zM1335 212q0 -93 -83 -160q-83 -66 -215 -66t-215 66t-83 160q1 93 57 146
t119 66v2q-45 8 -94 57t-49 132t75 143t191 59q116 0 190 -59q75 -60 75 -142q-1 -82 -51 -132t-93 -58v-2q63 -12 119 -66t57 -146zM33 0l979 1434h121l-977 -1434h-123zM20 1327v107h578v-72l-410 -729h-118l340 602q29 56 67 94l-2 2h-8l-81 -4h-366z" />
    <glyph glyph-name="minus" unicode="&#x2212;" 
d="M242 799h948v-142h-948v142z" />
    <glyph glyph-name="notequal" unicode="&#x2260;" 
d="M1190 842h-344l-123 -242h467v-141h-539l-127 -248h-145l127 248h-264v141h336l122 242h-458v141h532l135 266h144l-135 -266h272v-141z" />
    <glyph glyph-name="lessequal" unicode="&#x2264;" 
d="M1178 121v-141h-949v141h949zM1118 309h-221l-668 443l732 499h219l-721 -499z" />
    <glyph glyph-name="greaterequal" unicode="&#x2265;" 
d="M252 121h948v-141h-948v141zM311 309l660 443l-721 499h219l731 -499l-668 -443h-221z" />
    <glyph glyph-name="lozenge" unicode="&#x25ca;" horiz-adv-x="1566" 
d="M782 1268l-551 -551l551 -551l553 551zM782 -29l-745 746l745 745l746 -745z" />
    <glyph glyph-name="Cacute.loclPLK" horiz-adv-x="1558" 
d="M262 718q0 -257 164 -419t408 -162q164 0 299 81t206 216l166 -45q-90 -193 -269 -305t-402 -113q-311 0 -528 212q-216 212 -216 534q0 321 216 533t528 212q209 0 381 -102t270 -275l-170 -43q-74 119 -203 188t-278 68q-248 0 -410 -162t-162 -418zM936 1919l127 -72
l-221 -344l-109 64z" />
    <glyph glyph-name="I.ss03" horiz-adv-x="894" 
d="M530 150h275v-150h-715v150h272v1134h-264v150h699v-150h-267v-1134z" />
    <glyph glyph-name="IJ.ss03" horiz-adv-x="2211" 
d="M1892 1434h168v-840q0 -295 -158 -460t-442 -165q-200 -1 -352 103t-209 268l166 45q43 -121 149 -189t246 -69q209 0 321 121t111 336v850zM530 1284v-1134h275v-150h-715v150h272v1134h-264v150h699v-150h-267z" />
    <glyph glyph-name="IJ.ss03.ss04" horiz-adv-x="2213" 
d="M1241 1434h821v-840q0 -295 -158 -460t-442 -165q-200 -1 -352 103t-209 268l166 45q43 -121 149 -189t246 -69q209 0 321 121t111 336v692h-653v158zM530 1284v-1134h275v-150h-715v150h272v1134h-264v150h699v-150h-267z" />
    <glyph glyph-name="IJ.ss04" horiz-adv-x="1867" 
d="M895 1434h821v-840q0 -295 -158 -460t-442 -165q-200 -1 -352 103t-209 268l166 45q43 -121 149 -189t246 -69q209 0 321 121t111 336v692h-653v158zM190 0v1434h168v-1434h-168z" />
    <glyph glyph-name="Iacute.ss03" horiz-adv-x="894" 
d="M530 150h275v-150h-715v150h272v1134h-264v150h699v-150h-267v-1134zM750 1724l-449 -213l-53 95l440 237z" />
    <glyph glyph-name="Icircumflex.ss03" horiz-adv-x="894" 
d="M530 150h275v-150h-715v150h272v1134h-264v150h699v-150h-267v-1134zM444 1735l-256 -215l-86 88l342 288l340 -288l-84 -88z" />
    <glyph glyph-name="Idieresis.ss03" horiz-adv-x="894" 
d="M530 150h275v-150h-715v150h272v1134h-264v150h699v-150h-267v-1134zM685 1567q-42 1 -72 29q-29 28 -29 70t29 71q30 29 72 29t71 -30q28 -28 28 -70t-28 -71q-29 -28 -71 -28zM301 1666q1 -42 -29 -70t-72 -29q-42 1 -71 29t-29 70t29 71t71 29t72 -30q30 -28 29 -70z
" />
    <glyph glyph-name="Idotaccent.ss03" horiz-adv-x="894" 
d="M530 150h275v-150h-715v150h272v1134h-264v150h699v-150h-267v-1134zM449 1567q-41 1 -71 29t-30 69t30 71t71 30t69 -30t29 -71q-1 -41 -29 -69t-69 -29z" />
    <glyph glyph-name="Igrave.ss03" horiz-adv-x="894" 
d="M530 150h275v-150h-715v150h272v1134h-264v150h699v-150h-267v-1134zM614 1606l-53 -95l-448 213l63 119z" />
    <glyph glyph-name="Imacron.ss03" horiz-adv-x="894" 
d="M530 150h275v-150h-715v150h272v1134h-264v150h699v-150h-267v-1134zM797 1726v-131h-699v131h699z" />
    <glyph glyph-name="Iogonek.ss03" horiz-adv-x="894" 
d="M805 0h-377q-113 0 -197 -52t-84 -163q1 -72 49 -121t130 -49q147 0 211 143l96 -53q-94 -199 -305 -199q-133 0 -218 77t-85 206t96 211h-31v150h272v1134h-264v150h699v-150h-267v-1134h275v-150z" />
    <glyph glyph-name="J.ss04" horiz-adv-x="1341" 
d="M369 1434h821v-840q0 -295 -158 -460t-442 -165q-200 -1 -352 103t-209 268l166 45q43 -121 149 -189t246 -69q208 0 320 121t112 336v692h-653v158z" />
    <glyph glyph-name="Jcircumflex.ss04" horiz-adv-x="1341" 
d="M369 1434h821v-840q0 -295 -158 -460t-442 -165q-200 -1 -352 103t-209 268l166 45q43 -121 149 -189t246 -69q208 0 320 121t112 336v692h-653v158zM770 1735l-256 -215l-86 88l342 288l340 -288l-86 -88z" />
    <glyph glyph-name="N.ss02" horiz-adv-x="1556" 
d="M1198 1434h168v-1434h-168v547l-577 454q-176 147 -230 195l-35 29h-2v-8l2 -68v-52l2 -131v-966h-168v1434h160l484 -387q356 -301 366 -302h2v9l-2 56v46l-2 122v456z" />
    <glyph glyph-name="Nacute.loclPLK" horiz-adv-x="1556" 
d="M1198 1434h168v-1434h-158l-637 858q-51 72 -106 150t-82 114l-27 37h-2l2 -49l2 -358v-752h-168v1434h158l637 -856q47 -62 101 -138t85 -116l29 -41h2l-2 53l-2 344v754zM895 1919l127 -72l-221 -344l-109 64z" />
    <glyph glyph-name="Nacute.loclPLK.ss02" horiz-adv-x="1556" 
d="M1198 1434h168v-1434h-168v547l-577 454q-176 147 -230 195l-35 29h-2v-8l2 -68v-52l2 -131v-966h-168v1434h160l484 -387q356 -301 366 -302h2v9l-2 56v46l-2 122v456zM905 1919l127 -72l-221 -344l-109 64z" />
    <glyph glyph-name="Nacute.ss02" horiz-adv-x="1556" 
d="M1198 1434h168v-1434h-168v547l-577 454q-176 147 -230 195l-35 29h-2v-8l2 -68v-52l2 -131v-966h-168v1434h160l484 -387q356 -301 366 -302h2v9l-2 56v46l-2 122v456zM1032 1843l62 -119l-449 -213l-53 95z" />
    <glyph glyph-name="Ncaron.ss02" horiz-adv-x="1556" 
d="M1198 1434h168v-1434h-168v547l-577 454q-176 147 -230 195l-35 29h-2v-8l2 -68v-52l2 -131v-966h-168v1434h160l484 -387q356 -301 366 -302h2v9l-2 56v46l-2 122v456zM451 1780l86 88l256 -215l256 215l84 -88l-340 -289z" />
    <glyph glyph-name="Ncommaaccent.ss02" horiz-adv-x="1556" 
d="M690 -177q0 41 29 69t72 28t71 -34t29 -102q0 -68 -45 -152q-45 -85 -111 -146h-71q44 42 78 108t34 123l21 9l-21 2q-34 0 -60 26t-26 69zM1198 1434h168v-1434h-168v547l-577 454q-176 147 -230 195l-35 29h-2v-8l2 -68v-52l2 -131v-966h-168v1434h160l484 -387
q356 -301 366 -302h2v9l-2 56v46l-2 122v456z" />
    <glyph glyph-name="Ntilde.ss02" horiz-adv-x="1556" 
d="M1198 1434h168v-1434h-168v547l-577 454q-176 147 -230 195l-35 29h-2v-8l2 -68v-52l2 -131v-966h-168v1434h160l484 -387q356 -301 366 -302h2v9l-2 56v46l-2 122v456zM1022 1763h135q2 -92 -61 -152t-164 -61q-62 0 -148 60t-129 59q-43 0 -71 -28t-29 -68h-135
q0 92 63 152q63 61 149 61t169 -60q84 -60 124 -59q41 -1 69 27t28 69z" />
    <glyph glyph-name="Oacute.loclPLK" horiz-adv-x="1667" 
d="M262 718q0 -257 163 -420t409 -163t408 163t163 420q0 257 -163 419q-164 161 -410 161t-408 -162t-162 -418zM90 717q0 321 216 533t528 212t529 -212q216 -212 216 -534t-216 -533q-216 -212 -528 -212t-529 212q-216 212 -216 534zM956 1919l127 -72l-221 -344
l-108 64z" />
    <glyph glyph-name="Q.ss01" horiz-adv-x="1701" 
d="M262 732q0 -252 164 -410t404 -158t406 159q165 159 165 409t-165 409q-165 157 -407 157q-243 0 -405 -158t-162 -408zM1450 164h162v-164h-783q-311 0 -525 208t-214 523t215 523t526 208t527 -209t217 -522q0 -195 -95 -349t-253 -230l2 -2l4 2q6 0 14 1q7 1 21 2
t50 5t132 4z" />
    <glyph glyph-name="Sacute.loclPLK" horiz-adv-x="1220" 
d="M600 1315q-140 1 -230 -63q-89 -64 -89 -178t153 -177q107 -47 162 -60q55 -14 61 -16q7 -3 49 -15t92 -30t123 -55t115 -78t75 -107q32 -66 32 -147q1 -182 -145 -300t-374 -118t-373 117q-144 117 -179 305l161 43q15 -133 119 -223t266 -90t256 74q92 74 92 177
t-55 154q-31 29 -67 57t-192 74q-155 46 -218 68q-164 57 -230 123q-36 35 -65 93t-28 130q0 168 141 279q141 110 346 110t346 -106t176 -277l-159 -43q-23 129 -122 204t-239 75zM731 1919l127 -72l-221 -344l-109 64z" />
    <glyph glyph-name="Y.ss05" horiz-adv-x="1343" 
d="M1051 754v-140h-297v-614h-166v614h-291v140h254l-518 680h190l361 -469q46 -61 75 -97l13 -16h2q2 0 86 113l358 469h193l-520 -680h260z" />
    <glyph glyph-name="Yacute.ss05" horiz-adv-x="1343" 
d="M1051 754v-140h-297v-614h-166v614h-291v140h254l-518 680h190l361 -469q46 -61 75 -97l13 -16h2q2 0 86 113l358 469h193l-520 -680h260zM973 1724l-449 -213l-53 95l440 237z" />
    <glyph glyph-name="Ycircumflex.ss05" horiz-adv-x="1343" 
d="M1051 754v-140h-297v-614h-166v614h-291v140h254l-518 680h190l361 -469q46 -61 75 -97l13 -16h2q2 0 86 113l358 469h193l-520 -680h260zM668 1735l-256 -215l-86 88l342 288l340 -288l-84 -88z" />
    <glyph glyph-name="Ydieresis.ss05" horiz-adv-x="1343" 
d="M1051 754v-140h-297v-614h-166v614h-291v140h254l-518 680h190l361 -469q46 -61 75 -97l13 -16h2q2 0 86 113l358 469h193l-520 -680h260zM1008 1666q0 -42 -29 -70t-71 -29q-42 1 -72 29t-29 70q0 42 30 71q29 29 71 29t71 -30q29 -28 29 -70zM423 1567q-42 1 -71 29
q-28 28 -28 70t28 71q29 29 71 29t72 -30q29 -28 29 -70t-29 -71q-30 -28 -72 -28z" />
    <glyph glyph-name="Ygrave.ss05" horiz-adv-x="1343" 
d="M1051 754v-140h-297v-614h-166v614h-291v140h254l-518 680h190l361 -469q46 -61 75 -97l13 -16h2q2 0 86 113l358 469h193l-520 -680h260zM838 1606l-54 -95l-448 213l63 119z" />
    <glyph glyph-name="Zacute.loclPLK" horiz-adv-x="1413" 
d="M143 1276v158h1147v-156l-839 -1006l-107 -118l2 -2h10q16 4 65 4l109 2h760v-158h-1167v156l852 1011q18 20 45 48t45 47l18 16l-2 2h-8l-118 -4h-812zM827 1919l127 -72l-221 -344l-108 64z" />
    <glyph glyph-name="cacute.loclPLK" horiz-adv-x="1558" 
d="M262 718q0 -257 164 -419t408 -162q164 0 299 81t206 216l166 -45q-90 -193 -269 -305t-402 -113q-311 0 -528 212q-216 212 -216 534q0 321 216 533t528 212q209 0 381 -102t270 -275l-170 -43q-74 119 -203 188t-278 68q-248 0 -410 -162t-162 -418zM936 1919l127 -72
l-221 -344l-109 64z" />
    <glyph glyph-name="dotlessj.ss04" horiz-adv-x="1341" 
d="M369 1434h821v-840q0 -295 -158 -460t-442 -165q-200 -1 -352 103t-209 268l166 45q43 -121 149 -189t246 -69q208 0 320 121t112 336v692h-653v158z" />
    <glyph glyph-name="i.ss03" horiz-adv-x="894" 
d="M530 150h275v-150h-715v150h272v1134h-264v150h699v-150h-267v-1134z" />
    <glyph glyph-name="iacute.ss03" horiz-adv-x="894" 
d="M530 150h275v-150h-715v150h272v1134h-264v150h699v-150h-267v-1134zM750 1724l-449 -213l-53 95l440 237z" />
    <glyph glyph-name="icircumflex.ss03" horiz-adv-x="894" 
d="M530 150h275v-150h-715v150h272v1134h-264v150h699v-150h-267v-1134zM444 1735l-256 -215l-86 88l342 288l340 -288l-84 -88z" />
    <glyph glyph-name="idieresis.ss03" horiz-adv-x="894" 
d="M530 150h275v-150h-715v150h272v1134h-264v150h699v-150h-267v-1134zM685 1567q-42 1 -72 29q-29 28 -29 70t29 71q30 29 72 29t71 -30q28 -28 28 -70t-28 -71q-29 -28 -71 -28zM301 1666q1 -42 -29 -70t-72 -29q-42 1 -71 29t-29 70t29 71t71 29t72 -30q30 -28 29 -70z
" />
    <glyph glyph-name="idotaccent.ss03" horiz-adv-x="894" 
d="M530 150h275v-150h-715v150h272v1134h-264v150h699v-150h-267v-1134zM449 1567q-41 1 -71 29t-30 69t30 71t71 30t69 -30t29 -71q-1 -41 -29 -69t-69 -29z" />
    <glyph glyph-name="igrave.ss03" horiz-adv-x="894" 
d="M530 150h275v-150h-715v150h272v1134h-264v150h699v-150h-267v-1134zM614 1606l-53 -95l-448 213l63 119z" />
    <glyph glyph-name="ij.ss03" horiz-adv-x="2211" 
d="M1892 1434h168v-840q0 -295 -158 -460t-442 -165q-200 -1 -352 103t-209 268l166 45q43 -121 149 -189t246 -69q209 0 321 121t111 336v850zM530 1284v-1134h275v-150h-715v150h272v1134h-264v150h699v-150h-267z" />
    <glyph glyph-name="ij.ss03.ss04" horiz-adv-x="2213" 
d="M1241 1434h821v-840q0 -295 -158 -460t-442 -165q-200 -1 -352 103t-209 268l166 45q43 -121 149 -189t246 -69q209 0 321 121t111 336v692h-653v158zM530 1284v-1134h275v-150h-715v150h272v1134h-264v150h699v-150h-267z" />
    <glyph glyph-name="ij.ss04" horiz-adv-x="1867" 
d="M895 1434h821v-840q0 -295 -158 -460t-442 -165q-200 -1 -352 103t-209 268l166 45q43 -121 149 -189t246 -69q209 0 321 121t111 336v692h-653v158zM190 0v1434h168v-1434h-168z" />
    <glyph glyph-name="imacron.ss03" horiz-adv-x="894" 
d="M530 150h275v-150h-715v150h272v1134h-264v150h699v-150h-267v-1134zM797 1726v-131h-699v131h699z" />
    <glyph glyph-name="iogonek.ss03" horiz-adv-x="894" 
d="M805 0h-377q-113 0 -197 -52t-84 -163q1 -72 49 -121t130 -49q147 0 211 143l96 -53q-94 -199 -305 -199q-133 0 -218 77t-85 206t96 211h-31v150h272v1134h-264v150h699v-150h-267v-1134h275v-150z" />
    <glyph glyph-name="j.ss04" horiz-adv-x="1341" 
d="M369 1434h821v-840q0 -295 -158 -460t-442 -165q-200 -1 -352 103t-209 268l166 45q43 -121 149 -189t246 -69q208 0 320 121t112 336v692h-653v158z" />
    <glyph glyph-name="jcircumflex.ss04" horiz-adv-x="1341" 
d="M369 1434h821v-840q0 -295 -158 -460t-442 -165q-200 -1 -352 103t-209 268l166 45q43 -121 149 -189t246 -69q208 0 320 121t112 336v692h-653v158zM770 1735l-256 -215l-86 88l342 288l340 -288l-84 -88z" />
    <glyph glyph-name="n.ss02" horiz-adv-x="1556" 
d="M1198 1434h168v-1434h-168v547l-577 454q-176 147 -230 195l-35 29h-2v-8l2 -68v-52l2 -131v-966h-168v1434h160l484 -387q356 -301 366 -302h2v9l-2 56v46l-2 122v456z" />
    <glyph glyph-name="nacute.loclPLK" horiz-adv-x="1556" 
d="M1198 1434h168v-1434h-158l-637 858q-51 72 -106 150t-82 114l-27 37h-2l2 -49l2 -358v-752h-168v1434h158l637 -856q47 -62 101 -138t85 -116l29 -41h2l-2 53l-2 344v754zM895 1919l127 -72l-221 -344l-109 64z" />
    <glyph glyph-name="nacute.loclPLK.ss02" horiz-adv-x="1556" 
d="M1198 1434h168v-1434h-168v547l-577 454q-176 147 -230 195l-35 29h-2v-8l2 -68v-52l2 -131v-966h-168v1434h160l484 -387q356 -301 366 -302h2v9l-2 56v46l-2 122v456zM905 1919l127 -72l-221 -344l-109 64z" />
    <glyph glyph-name="nacute.ss02" horiz-adv-x="1556" 
d="M1198 1434h168v-1434h-168v547l-577 454q-176 147 -230 195l-35 29h-2v-8l2 -68v-52l2 -131v-966h-168v1434h160l484 -387q356 -301 366 -302h2v9l-2 56v46l-2 122v456zM1032 1843l62 -119l-449 -213l-53 95z" />
    <glyph glyph-name="ncaron.ss02" horiz-adv-x="1556" 
d="M1198 1434h168v-1434h-168v547l-577 454q-176 147 -230 195l-35 29h-2v-8l2 -68v-52l2 -131v-966h-168v1434h160l484 -387q356 -301 366 -302h2v9l-2 56v46l-2 122v456zM451 1780l86 88l256 -215l256 215l84 -88l-340 -289z" />
    <glyph glyph-name="ncommaaccent.ss02" horiz-adv-x="1556" 
d="M690 -177q0 41 29 69t72 28t71 -34t29 -102q0 -68 -45 -152q-45 -85 -111 -146h-71q44 42 78 108t34 123l21 9l-21 2q-34 0 -60 26t-26 69zM1198 1434h168v-1434h-168v547l-577 454q-176 147 -230 195l-35 29h-2v-8l2 -68v-52l2 -131v-966h-168v1434h160l484 -387
q356 -301 366 -302h2v9l-2 56v46l-2 122v456z" />
    <glyph glyph-name="ntilde.ss02" horiz-adv-x="1556" 
d="M1198 1434h168v-1434h-168v547l-577 454q-176 147 -230 195l-35 29h-2v-8l2 -68v-52l2 -131v-966h-168v1434h160l484 -387q356 -301 366 -302h2v9l-2 56v46l-2 122v456zM1022 1763h135q2 -92 -61 -152t-164 -61q-62 0 -148 60t-129 59q-43 0 -71 -28t-29 -68h-135
q0 92 63 152q63 61 149 61t169 -60q84 -60 124 -59q41 -1 69 27t28 69z" />
    <glyph glyph-name="oacute.loclPLK" horiz-adv-x="1667" 
d="M262 718q0 -257 163 -420t409 -163t408 163t163 420q0 257 -163 419q-164 161 -410 161t-408 -162t-162 -418zM90 717q0 321 216 533t528 212t529 -212q216 -212 216 -534t-216 -533q-216 -212 -528 -212t-529 212q-216 212 -216 534zM956 1919l127 -72l-221 -344
l-108 64z" />
    <glyph glyph-name="q.ss01" horiz-adv-x="1701" 
d="M262 732q0 -252 164 -410t404 -158t406 159q165 159 165 409t-165 409q-165 157 -407 157q-243 0 -405 -158t-162 -408zM1450 164h162v-164h-783q-311 0 -525 208t-214 523t215 523t526 208t527 -209t217 -522q0 -195 -95 -349t-253 -230l2 -2l4 2q6 0 14 1q7 1 21 2
t50 5t132 4z" />
    <glyph glyph-name="sacute.loclPLK" horiz-adv-x="1220" 
d="M600 1315q-140 1 -230 -63q-89 -64 -89 -178t153 -177q107 -47 162 -60q55 -14 61 -16q7 -3 49 -15t92 -30t123 -55t115 -78t75 -107q32 -66 32 -147q1 -182 -145 -300t-374 -118t-373 117q-144 117 -179 305l161 43q15 -133 119 -223t266 -90t256 74q92 74 92 177
t-55 154q-31 29 -67 57t-192 74q-155 46 -218 68q-164 57 -230 123q-36 35 -65 93t-28 130q0 168 141 279q141 110 346 110t346 -106t176 -277l-159 -43q-23 129 -122 204t-239 75zM731 1919l127 -72l-221 -344l-109 64z" />
    <glyph glyph-name="y.ss05" horiz-adv-x="1343" 
d="M1051 754v-140h-297v-614h-166v614h-291v140h254l-518 680h190l361 -469q46 -61 75 -97l13 -16h2q2 0 86 113l358 469h193l-520 -680h260z" />
    <glyph glyph-name="yacute.ss05" horiz-adv-x="1343" 
d="M1051 754v-140h-297v-614h-166v614h-291v140h254l-518 680h190l361 -469q46 -61 75 -97l13 -16h2q2 0 86 113l358 469h193l-520 -680h260zM973 1724l-449 -213l-53 95l440 237z" />
    <glyph glyph-name="ycircumflex.ss05" horiz-adv-x="1343" 
d="M1051 754v-140h-297v-614h-166v614h-291v140h254l-518 680h190l361 -469q46 -61 75 -97l13 -16h2q2 0 86 113l358 469h193l-520 -680h260zM668 1735l-256 -215l-86 88l342 288l340 -288l-84 -88z" />
    <glyph glyph-name="ydieresis.ss05" horiz-adv-x="1343" 
d="M1051 754v-140h-297v-614h-166v614h-291v140h254l-518 680h190l361 -469q46 -61 75 -97l13 -16h2q2 0 86 113l358 469h193l-520 -680h260zM1008 1666q0 -42 -29 -70t-71 -29q-42 1 -72 29t-29 70q0 42 30 71q29 29 71 29t71 -30q29 -28 29 -70zM423 1567q-42 1 -71 29
q-28 28 -28 70t28 71q29 29 71 29t72 -30q29 -28 29 -70t-29 -71q-30 -28 -72 -28z" />
    <glyph glyph-name="ygrave.ss05" horiz-adv-x="1343" 
d="M1051 754v-140h-297v-614h-166v614h-291v140h254l-518 680h190l361 -469q46 -61 75 -97l13 -16h2q2 0 86 113l358 469h193l-520 -680h260zM838 1606l-54 -95l-448 213l63 119z" />
    <glyph glyph-name="zacute.loclPLK" horiz-adv-x="1413" 
d="M143 1276v158h1147v-156l-839 -1006l-107 -118l2 -2h10q16 4 65 4l109 2h760v-158h-1167v156l852 1011q18 20 45 48t45 47l18 16l-2 2h-8l-118 -4h-812zM827 1919l127 -72l-221 -344l-108 64z" />
    <glyph glyph-name="zero.slsh" horiz-adv-x="1470" 
d="M735 135q225 0 349 167t124 426t-137 421l-594 -936q111 -78 258 -78zM262 704q0 -261 139 -421l594 936q-109 80 -260 79q-227 0 -350 -166t-123 -428zM735 1462q199 0 349 -104t223 -272t73 -370q0 -200 -74 -368t-223 -272q-150 -104 -348 -105q-297 0 -471 216
q-174 215 -174 529t174 530t471 216z" />
    <glyph glyph-name="zero.sups" horiz-adv-x="794" 
d="M397 1069q111 0 179 86t67 210q0 124 -68 210q-69 86 -179 86t-178 -86t-66 -210q0 -124 67 -210t178 -86zM397 948q-166 0 -267 119t-101 297t101 298t267 120q165 0 267 -120t102 -298t-102 -297t-267 -119z" />
    <glyph glyph-name="four.sups" horiz-adv-x="696" 
d="M438 1257v175l4 137v24l2 9h-2l-16 -23q-47 -68 -94 -121l-105 -121q-14 -17 -37 -37l-49 -45l2 -2h9l85 4h201zM651 1260v-103h-104v-192h-109v192h-418v82l441 526h86v-505h104z" />
    <glyph glyph-name="five.sups" horiz-adv-x="669" 
d="M347 1497q118 0 198 -76q80 -75 80 -195t-82 -199t-206 -79t-202 68t-94 172l109 29q10 -76 56 -120t127 -44t131 48t50 126t-50 127t-122 49t-116 -27t-60 -63l-98 26l69 426h441v-106h-351l-20 -105q-8 -47 -20 -78t-17 -49l2 -2q57 72 175 72z" />
    <glyph glyph-name="six.sups" horiz-adv-x="673" 
d="M329 1053q83 0 134 49t53 128t-50 127t-136 48t-136 -48t-52 -127t52 -128t135 -49zM344 1503q125 0 205 -79q80 -80 80 -200t-84 -198t-214 -78t-216 78t-86 208t106 275l199 256h125l-269 -340l3 -2q75 80 151 80z" />
    <glyph glyph-name="seven.sups" horiz-adv-x="608" 
d="M20 1659v106h578v-71l-410 -729h-118l340 602q29 56 67 94l-2 2h-8l-81 -4h-366z" />
    <glyph glyph-name="eight.sups" horiz-adv-x="653" 
d="M326 1331q-84 0 -138 -40q-54 -39 -53 -103q0 -64 53 -105q52 -41 138 -41t139 41t53 105t-54 103q-54 40 -138 40zM162 1569q0 -55 46 -91t119 -35t119 36t46 91t-46 90t-120 34q-72 0 -118 -35t-46 -90zM29 1177q0 93 56 146t120 66v2q-45 8 -94 58t-49 132t74 141
q75 60 191 60q117 0 191 -60t74 -141q0 -82 -50 -132t-93 -58v-2q63 -11 119 -65t56 -147t-82 -160q-83 -67 -215 -67t-215 67t-83 160z" />
    <glyph glyph-name="nine.sups" horiz-adv-x="657" 
d="M327 1679q-83 0 -134 -49t-56 -129q0 -78 52 -127q53 -49 137 -49t136 49t52 128t-52 128t-135 49zM29 1508q0 120 84 197t214 77t216 -78t86 -216t-146 -310l-178 -213h-133l289 331l-2 2q-59 -70 -146 -69q-127 0 -205 79q-78 80 -79 200z" />
    <glyph glyph-name="zero.tf" 
d="M715 1298q-113 0 -197 -54q-145 -93 -191 -312q-45 -219 -3 -414q49 -234 194 -329q84 -54 197 -54t197 54q143 92 194 329q20 96 20 198q0 216 -86 385q-44 89 -128 143t-197 54zM715 1462q147 0 263 -66t184 -174q139 -223 137 -507q-1 -285 -138 -504
q-67 -109 -183 -175t-263 -65q-147 0 -263 66q-209 119 -286 412q-35 129 -35 268q0 283 137 506q68 109 184 174t263 65z" />
    <glyph glyph-name="one.tf" 
d="M698 973q0 109 7 186v31h-3l-18 -21q-20 -20 -48 -51t-44 -47l-182 -180l-105 102l443 441h118v-1276h353v-158h-875v158h354v815z" />
    <glyph glyph-name="two.tf" 
d="M1196 158v-158h-995v137q109 89 327 273t326 274q174 145 174 328q0 131 -89 216t-231 85t-234 -74t-128 -201l-156 43q56 185 192 283t340 98t340 -127t136 -321q0 -137 -52 -227q-22 -37 -33 -59t-45 -56t-44 -48q-10 -12 -52 -48t-50 -42t-56 -41q-48 -36 -49 -38
l-391 -301l2 -2h6l86 4l107 2h569z" />
    <glyph glyph-name="three.tf" 
d="M742 1462q220 0 342 -114q124 -114 124 -264t-93 -241t-218 -98v-2q135 -4 232 -92t98 -237q1 -199 -141 -321t-354 -122t-364 114t-184 296l152 41q23 -135 128 -217t259 -82t243 85t89 211q0 127 -93 191t-253 64h-127v137h129q326 0 325 256q0 96 -80 171t-243 75
q-272 -1 -348 -277l-152 41q41 181 175 283t354 102z" />
    <glyph glyph-name="four.tf" 
d="M913 510v449q0 65 5 170l2 63v8h-2l-21 -29q-23 -27 -61 -77t-74 -93l-295 -350l-127 -141l2 -2h45l191 2h335zM1266 510v-150h-195v-360h-158v360h-768v121l795 953h131v-924h195z" />
    <glyph glyph-name="five.tf" 
d="M719 936q217 0 361 -135t144 -343t-144 -347t-357 -139t-354 110q-141 111 -179 285l154 41q27 -129 123 -209q95 -80 245 -80t247 97q97 96 97 244t-96 246q-98 98 -245 97q-246 0 -322 -180l-145 39l125 772h766v-158h-639l-39 -219q-11 -68 -25 -128t-20 -89l-6 -27
l2 -2q36 47 118 86t189 39z" />
    <glyph glyph-name="six.tf" 
d="M718 121q163 0 264 96t104 250t-98 248t-268 94t-268 -94q-102 -94 -102 -248t102 -250t266 -96zM745 950q223 0 363 -140t139 -351q1 -211 -151 -349t-382 -138t-381 138q-151 140 -151 359q0 133 47 247t152 253l354 465h185l-457 -603l2 -2q98 121 280 121z" />
    <glyph glyph-name="seven.tf" 
d="M225 1276v158h1022v-103l-747 -1331h-181l603 1063q35 64 114 186l19 29l-2 2h-13l-131 -4h-684z" />
    <glyph glyph-name="eight.tf" 
d="M714 680q-170 0 -272 -76t-102 -207t101 -210t273 -79t274 79t102 210t-102 207t-274 76zM391 1081q0 -111 90 -179q89 -68 233 -68q144 2 234 70t90 178t-91 182t-233 72t-233 -72q-90 -72 -90 -183zM1249 395q0 -186 -148 -304t-386 -118t-386 118q-149 118 -149 288
t104 269t240 114v2q-86 8 -183 96t-97 236t132 258q132 108 339 108t339 -108t132 -258q0 -148 -98 -236t-183 -96v-2q139 -16 241 -116t103 -251z" />
    <glyph glyph-name="nine.tf" 
d="M675 1313q-159 0 -267 -90t-107 -258q0 -168 108 -255q107 -87 267 -87t265 91t105 256t-106 254t-265 89zM649 483q-238 1 -375 139t-137 353t154 351t387 136t385 -132t151 -367q0 -137 -64 -273t-216 -315l-322 -375h-192l516 602l-2 2q-104 -121 -285 -121z" />
    <glyph glyph-name="zero.slsh.tf" 
d="M700 135q240 0 340 198q86 170 86 392q0 221 -88 381l-561 -885q95 -86 223 -86zM715 1298q-113 0 -197 -54q-145 -93 -194 -329q-20 -96 -21 -198q1 -254 105 -416l563 893q-100 104 -256 104zM715 1462q147 0 263 -66t184 -174q139 -223 137 -507q-1 -285 -138 -504
q-67 -109 -183 -175t-263 -65q-147 0 -263 66q-209 119 -286 412q-35 129 -35 268q0 283 137 506q68 109 184 174t263 65z" />
    <glyph glyph-name="zero.slsh.numr" horiz-adv-x="786" 
d="M397 737q111 0 179 86t67 209q1 123 -65 209l-299 -471q53 -33 118 -33zM397 1329q-111 0 -179 -86t-67 -211q0 -125 68 -209l299 471q-53 35 -121 35zM397 1450q165 0 267 -120t102 -298t-101 -297t-267 -119t-268 119q-101 119 -101 297t101 298t267 120z" />
    <glyph glyph-name="zero.slsh.dnom" horiz-adv-x="786" 
d="M397 96q111 0 179 86t67 209q1 123 -65 209l-299 -471q53 -33 118 -33zM397 688q-111 0 -179 -86t-67 -211q0 -125 68 -209l299 471q-53 35 -121 35zM397 809q165 0 267 -120t102 -298t-101 -297t-267 -119t-268 119q-101 119 -101 297t101 298t267 120z" />
    <glyph glyph-name="zero.slsh.sups" horiz-adv-x="786" 
d="M397 1069q111 0 179 86t67 209q1 123 -65 209l-299 -471q53 -33 118 -33zM397 1661q-111 0 -179 -86t-67 -211q0 -125 68 -209l299 471q-53 35 -121 35zM397 1782q165 0 267 -120t102 -298t-101 -297t-267 -119t-268 119q-101 119 -101 297t101 298t267 120z" />
    <glyph glyph-name="zero.dnom" horiz-adv-x="794" 
d="M397 104q111 0 179 86t67 210q0 124 -68 210q-69 86 -179 86t-178 -86t-66 -210q0 -124 67 -210t178 -86zM397 -16q-166 0 -267 118t-101 297q0 178 101 298t267 120q165 0 267 -120t102 -298t-101 -297q-102 -118 -268 -118z" />
    <glyph glyph-name="one.dnom" horiz-adv-x="454" 
d="M258 475q0 86 12 164v12h-2q-2 0 -22 -27t-45 -51l-97 -94l-75 70l266 252h82v-801h-119v475z" />
    <glyph glyph-name="two.dnom" horiz-adv-x="673" 
d="M403 106h220v-106h-568v84l328 262q129 106 129 207q0 66 -49 110t-121 44q-147 0 -192 -164l-109 28q29 115 110 181t197 66t199 -78q82 -77 82 -187q0 -135 -148 -256l-85 -68q-96 -77 -197 -135l2 -2q57 14 202 14z" />
    <glyph glyph-name="three.dnom" horiz-adv-x="661" 
d="M358 817q126 0 196 -63q71 -62 71 -148q-1 -86 -55 -136t-124 -54v-2q76 -4 132 -54t55 -144q0 -94 -81 -164t-202 -68q-121 0 -208 68t-101 177l106 29q7 -78 61 -124t138 -46t128 42t44 102t-49 98t-127 39h-80v88h80q74 0 121 38t47 91t-41 90t-123 37
q-153 0 -186 -156l-105 31q21 104 99 166t204 63z" />
    <glyph glyph-name="four.dnom" horiz-adv-x="696" 
d="M438 293v174l4 137v25l2 8h-2l-16 -23q-50 -72 -94 -120l-105 -121q-14 -17 -37 -37l-49 -45l2 -2h9l85 4h201zM651 295v-102h-104v-193h-109v193h-418v81l441 527h86v-506h104z" />
    <glyph glyph-name="five.dnom" horiz-adv-x="669" 
d="M625 261q0 -120 -82 -199q-82 -78 -206 -78t-202 66t-94 173l109 29q10 -76 56 -120t127 -44t131 48t50 126t-50 127t-122 49t-116 -26q-44 -27 -60 -64l-98 25l69 428h441v-107h-351l-20 -106q-8 -45 -20 -79q-13 -34 -17 -46l2 -2q57 71 175 71t198 -76t80 -195z" />
    <glyph glyph-name="six.dnom" horiz-adv-x="673" 
d="M329 86q83 0 134 49t53 129t-50 128t-136 48t-136 -48t-52 -128t52 -129t135 -49zM344 537q127 0 206 -79t79 -200t-84 -198q-84 -76 -214 -76t-216 78t-86 207q0 130 106 274l199 258h125l-269 -340l3 -2q72 78 151 78z" />
    <glyph glyph-name="seven.dnom" horiz-adv-x="608" 
d="M20 694v107h578v-74l-410 -727h-118l340 602q19 36 67 94l-2 2h-8l-81 -4h-366z" />
    <glyph glyph-name="eight.dnom" horiz-adv-x="653" 
d="M135 222q0 -64 52 -104q53 -40 139 -40t139 41t53 103t-54 104t-138 41q-84 0 -138 -40q-53 -41 -53 -105zM162 604q0 -55 46 -91t119 -35t119 36t46 90t-46 90t-120 35q-72 0 -118 -35t-46 -90zM29 212q0 93 56 146t120 64v2q-43 8 -93 58t-50 133t74 143q75 60 191 59
q117 0 191 -59q74 -60 74 -142t-50 -133t-93 -59v-2q63 -10 119 -64t56 -146q0 -93 -83 -161q-84 -67 -215 -67t-214 68t-83 160z" />
    <glyph glyph-name="nine.dnom" horiz-adv-x="657" 
d="M327 715q-83 0 -134 -49t-56 -129q0 -80 52 -128q53 -49 137 -49t136 48t52 129q0 80 -52 129t-135 49zM313 262q-125 0 -205 79t-79 200q0 121 84 199t214 77q130 0 216 -78t86 -215t-146 -313l-178 -211h-133l289 332l-2 2q-61 -72 -146 -72z" />
    <glyph glyph-name="zero.numr" horiz-adv-x="794" 
d="M397 737q111 0 179 86t67 210q0 124 -68 210q-69 86 -179 86t-178 -86t-66 -210q0 -124 67 -210t178 -86zM397 616q-166 0 -267 119t-101 297t101 298t267 120q165 0 267 -120t102 -298t-102 -297t-267 -119z" />
    <glyph glyph-name="one.numr" horiz-adv-x="454" 
d="M258 1110q0 84 12 162v12h-2q-2 0 -19 -24t-48 -52l-97 -96l-75 70l266 252h82v-801h-119v477z" />
    <glyph glyph-name="two.numr" horiz-adv-x="673" 
d="M623 739v-106h-568v84l328 264q129 102 129 205q0 68 -48 110t-126 43q-142 0 -188 -161l-109 28q29 116 110 180t197 64t199 -76q82 -76 82 -186q0 -137 -148 -258q-10 -8 -85 -69t-117 -86t-80 -46l2 -2l32 2q77 10 170 10h220z" />
    <glyph glyph-name="three.numr" horiz-adv-x="677" 
d="M356 1450q124 0 197 -64q72 -64 72 -147q-1 -84 -55 -135t-124 -55v-2q78 -5 132 -53t55 -144q0 -96 -81 -164q-81 -70 -202 -70t-208 70t-101 178l106 27q7 -78 61 -124t138 -46t128 42t44 103q0 60 -49 98t-127 37h-80v91h80q74 0 121 38t47 90t-41 90t-123 38
q-151 0 -186 -156l-105 29q21 105 99 167t202 62z" />
    <glyph glyph-name="four.numr" horiz-adv-x="696" 
d="M438 926v174l4 137v25l2 8h-2l-16 -23q-47 -68 -94 -121l-105 -120q-14 -18 -37 -38l-49 -44l2 -2h9l85 4h201zM651 928v-103h-104v-192h-109v192h-418v82l441 527h86v-506h104z" />
    <glyph glyph-name="five.numr" horiz-adv-x="669" 
d="M625 894q0 -120 -82 -199t-206 -79t-202 68t-94 172l109 29q10 -76 56 -120t127 -44t131 48t50 126t-50 127t-122 49t-116 -27t-60 -63l-98 27l69 426h441v-107h-351l-20 -104q-8 -45 -18 -74q-11 -29 -19 -53l2 -2q57 72 175 72t198 -76t80 -196z" />
    <glyph glyph-name="six.numr" horiz-adv-x="673" 
d="M329 721q83 0 134 49t53 128t-50 127t-136 48t-136 -48t-52 -127t52 -128t135 -49zM344 1171q125 -1 205 -79t80 -199t-84 -199t-214 -78t-216 78t-86 208t106 276l199 256h125l-269 -340l3 -2q74 79 151 79z" />
    <glyph glyph-name="seven.numr" horiz-adv-x="608" 
d="M20 1327v107h578v-72l-410 -729h-118l340 602q29 56 67 94l-2 2h-8l-81 -4h-366z" />
    <glyph glyph-name="eight.numr" horiz-adv-x="653" 
d="M326 999q-84 0 -138 -40q-54 -39 -53 -103q0 -64 53 -104q52 -40 138 -41q86 0 139 41t53 104t-54 103t-138 40zM162 1237q0 -55 46 -91t119 -35t119 36t46 91t-46 90t-120 34q-72 0 -118 -35t-46 -90zM29 845q0 93 56 146t120 66v2q-45 8 -94 58t-49 132q0 81 74 141
q75 60 191 60q117 0 191 -59t74 -141t-50 -133q-50 -50 -93 -58v-2q63 -11 119 -65t56 -147t-82 -160q-83 -67 -215 -67t-215 67t-83 160z" />
    <glyph glyph-name="nine.numr" horiz-adv-x="657" 
d="M514 1170q0 78 -52 128t-135 50t-134 -50t-56 -129q0 -78 52 -127q53 -49 137 -49t136 49t52 128zM313 897q-127 0 -205 79t-79 200q0 122 84 198t214 76t216 -78t86 -216t-146 -310l-178 -213h-133l289 332l-2 2q-59 -70 -146 -70z" />
    <glyph glyph-name="dollar.tf" 
d="M696 1315q-140 1 -230 -63q-89 -64 -89 -177t153 -178q52 -23 94 -36t78 -25t41 -12q140 -35 243 -87q104 -53 147 -94t75 -107t31 -147q0 -167 -123 -281t-325 -133v-159h-166v161q-186 23 -307 136q-120 113 -150 280l162 43q16 -133 120 -223t265 -90q162 0 255 74
t93 178t-55 153q-31 29 -61 51q-49 37 -247 95q-316 92 -400 176q-36 35 -64 93q-29 58 -29 130q0 152 116 257t302 128v160h166v-162q163 -23 279 -124t147 -253l-160 -43q-23 129 -122 204t-239 75z" />
    <glyph glyph-name="percent.tf" 
d="M993 104q111 0 179 86t67 210q0 124 -68 210q-69 86 -179 86t-178 -86t-66 -210q0 -124 67 -210t178 -86zM430 737q110 0 178 86t68 210t-68 210t-178 86t-178 -86t-68 -210t68 -210t178 -86zM993 817q165 0 267 -120t102 -298t-101 -297q-101 -118 -267 -118t-268 118
q-101 118 -101 297v23l-217 -422h-121l352 682q-92 -66 -209 -66q-166 0 -267 119t-102 297t101 298t268 120t267 -120t102 -298q0 -29 -2 -43l229 445h121l-346 -672q84 55 192 55z" />
    <glyph glyph-name="cent.tf" 
d="M807 -29h-139v213q-197 25 -329 173q-132 149 -132 359t132 358t329 173v215h139v-215q133 -16 241 -91t164 -189l-145 -39q-106 178 -330 178q-166 0 -270 -106q-105 -106 -105 -282q0 -175 106 -283t269 -107q119 0 209 54t137 153l144 -41q-53 -127 -166 -210
t-254 -100v-213z" />
    <glyph glyph-name="sterling.tf" 
d="M1260 158v-158h-1061v158q119 26 153 116t17 271l-11 114h-147v138h135l-20 211q-16 188 107 319q124 131 319 135q160 4 298 -88t189 -299l-143 -39q-86 287 -340 277q-129 -4 -203 -94t-59 -224l18 -198h479v-138h-467l11 -110q29 -322 -113 -395l2 -2h12l151 4l165 2
h508z" />
    <glyph glyph-name="currency.tf" 
d="M715 1090q-162 0 -274 -113q-111 -113 -111 -278t112 -277t273 -111q163 0 275 112q112 111 112 275t-112 278t-275 114zM1253 702q0 -190 -112 -331l149 -150l-88 -88l-147 150q-152 -125 -342 -125t-338 125l-150 -150l-86 88l150 150q-113 145 -113 331t123 336
l-145 144l88 88l147 -146q145 113 327 113t324 -113l148 146l86 -88l-146 -146q125 -144 125 -334z" />
    <glyph glyph-name="yen.tf" 
d="M1217 872v-120h-383l-37 -47v-33h420v-121h-420v-551h-166v551h-406v121h406v33l-37 47h-369v120h279l-428 562h190l361 -469q12 -17 37 -49t36 -48l15 -16h2q2 0 86 113l358 469h193l-428 -562h291z" />
    <glyph glyph-name="Euro.tf" 
d="M746 -25q-230 0 -413 160t-233 418h-102v119h90q-2 14 -2 45v43h-86v117h100q46 261 230 421t432 160q200 0 356 -100t244 -275l-164 -41q-68 123 -183 192q-116 69 -257 69q-180 0 -314 -114t-176 -312h527v-117h-541q-2 -14 -2 -44t2 -44h539v-119h-525
q43 -197 177 -309q135 -112 301 -111q166 0 291 80t188 219l159 -41q-82 -193 -246 -305q-162 -112 -392 -111z" />
    <glyph glyph-name="uni20B9.tf" 
d="M1223 1434v-134h-262q59 -53 96 -122h166v-131h-123q4 -41 4 -64q0 -195 -135 -319t-348 -129l438 -535h-201l-440 539v133h192q139 0 230 90q90 90 90 221q0 33 -6 64h-609v131h549q-92 123 -254 122h-295v134h908z" />
    <glyph glyph-name="colon.case" horiz-adv-x="448" 
d="M326 392q0 -42 -30 -70t-72 -29q-42 0 -72 30q-30 29 -29 71q0 42 30 72q29 30 71 30t72 -31t30 -73zM326 1027q0 -43 -30 -71t-72 -28t-72 30t-29 71q0 42 30 72q29 29 71 29t72 -30t30 -73z" />
    <glyph glyph-name="semicolon.case" horiz-adv-x="479" 
d="M147 402q0 42 32 71t75 29t73 -34q29 -34 29 -104t-46 -158q-46 -87 -113 -153h-74q47 43 81 112t34 128l20 10l-20 2q-33 0 -62 27q-29 28 -29 70zM249 938q-42 0 -72 30t-30 72t30 71q30 30 72 30t72 -31q29 -31 29 -73q0 -43 -30 -71t-71 -28z" />
    <glyph glyph-name="apple" horiz-adv-x="1648" 
d="M1077 -2q-12 0 -12 12t12 13q12 -1 12 -13t-12 -12zM1212 54q0 -34 24 -34t24 34t-24 34t-24 -34zM1331 0h-31l9 109h39l16 -70l18 70h39l4 -109h-28v82l-23 -80h-20l-23 80v-82zM932 109h31l14 -74l12 74h31l12 -74l15 74h28l-26 -109h-33l-12 72l-15 -72h-31zM881 43
v-20h43v-23h-74v109h74v-23h-43v-20h39v-23h-39zM834 0h-31v109h31v-109zM690 109h33l18 -80l21 80h31l-35 -109h-33zM614 68h37v41h29v-109h-29v43h-37v-43h-30v109h30v-41zM489 86v23h84v-23h-28v-86h-27v86h-29zM383 109h37l33 -66v66h26v-109h-30l-39 72v-72h-27v109z
M338 0h-29v41l-35 68h35l15 -48l16 48h33l-35 -68v-41zM1292 53q0 -55 -55 -55t-55 55q0 25 15 41t40 16t40 -16t15 -41zM1092 51q0 58 59 60q20 0 29 -5l-9 -24q-6 6 -18 6q-31 0 -31 -34t31 -34q12 0 18 7l7 -25q-12 -4 -29 -4q-57 0 -57 53zM233 88q-11 0 -12 -8
q0 -6 26 -15t25 -32q0 -35 -49 -35q-20 0 -33 6l9 25q25 -8 28 -9q14 0 15 11q0 6 -25 14t-24 31q0 35 43 35q23 0 30 -7l-6 -24q-16 8 -27 8zM821 524l185 -162q55 -10 272 -14q-6 193 -14 266l-166 187l166 182q6 43 14 272q-199 -4 -270 -14l-187 -166l-180 166
q-72 10 -272 14q8 -231 14 -272l162 -182l-162 -183q-6 -43 -14 -270q219 4 270 14zM1366 168q-354 0 -425 26q-22 7 -38 23l-55 47l-27 21l-78 -68q-17 -16 -39 -24q-70 -25 -425 -25h-89v88q0 193 9 299q8 106 16 128t23 38l49 55l20 25l-69 78q-14 18 -23 40
q-23 64 -25 424v91h89q345 0 430 -26q23 -7 39 -22l77 -71l35 33l41 34q18 16 40 24q66 26 425 28h90v-91q0 -354 -26 -425q-8 -23 -25 -39l-45 -54l-23 -24l74 -86q11 -19 19 -39t17 -124t9 -292v-92h-90z" />
    </font>
</defs>
</svg>
