<?xml version="1.0" standalone="no"?>
<!DOCTYPE svg PUBLIC "-//W3C//DTD SVG 1.1//EN" "http://www.w3.org/Graphics/SVG/1.1/DTD/svg11.dtd" >
<svg xmlns="http://www.w3.org/2000/svg">
<metadata>
Created by FontPrep 20130207 at Wed Oct 22 20:18:49 2014
 By James Azzopardi
Copyright (c) 2011 by Jan Tonellato. All rights reserved.
</metadata>
<defs>
<font id="80f3a7fa68780569af58fcfa5561c79f" horiz-adv-x='1024' >
  <font-face 
    font-family="Novecentowide-Light"
    font-weight="300"
    font-stretch="expanded"
    units-per-em="2048"
    panose-1="0 0 4 5 0 0 0 0 0 0"
    ascent="1741"
    descent="-307"
    x-height="1434"
    cap-height="1434"
    bbox="-401 -487.014 2752 1878"
    underline-thickness="63"
    underline-position="-236"
    unicode-range="U+0020-25CA"
  />
<missing-glyph horiz-adv-x="1437" 
d="M1044 1100l52 -51l-324 -326l326 -326l-54 -51l-325 326l-326 -326l-51 51l326 326l-326 326l51 51l326 -324zM406 41h626q78 0 115 36t37 120v1040q0 84 -41 120t-131 36h-586q-96 0 -134 -35t-38 -121v-1040q0 -156 152 -156zM207 174v1086q0 80 49 126t125 48h676
q76 0 125 -48t49 -126v-1086q0 -82 -48 -128t-126 -46h-676q-78 0 -126 46t-48 128z" />
    <glyph glyph-name=".notdef" horiz-adv-x="1437" 
d="M1044 1100l52 -51l-324 -326l326 -326l-54 -51l-325 326l-326 -326l-51 51l326 326l-326 326l51 51l326 -324zM406 41h626q78 0 115 36t37 120v1040q0 84 -41 120t-131 36h-586q-96 0 -134 -35t-38 -121v-1040q0 -156 152 -156zM207 174v1086q0 80 49 126t125 48h676
q76 0 125 -48t49 -126v-1086q0 -82 -48 -128t-126 -46h-676q-78 0 -126 46t-48 128z" />
    <glyph glyph-name=".null" horiz-adv-x="0" 
 />
    <glyph glyph-name="nonmarkingreturn" horiz-adv-x="681" 
 />
    <glyph glyph-name="space" unicode=" " horiz-adv-x="512" 
 />
    <glyph glyph-name="exclam" unicode="!" horiz-adv-x="491" 
d="M207 0v322h78v-322h-78zM207 481v953h78v-953h-78z" />
    <glyph glyph-name="quotedbl" unicode="&#x22;" horiz-adv-x="720" 
d="M432 989v445h82v-445h-82zM207 989v445h82v-445h-82z" />
    <glyph glyph-name="numbersign" unicode="#" horiz-adv-x="1679" 
d="M973 481l258 504h-535l-256 -504h533zM1593 985h-288l-256 -504h286l-32 -63h-287l-213 -418h-76l213 418h-532l-213 -418h-76l213 418h-269l33 63h269l258 504h-271l33 64h270l197 385h74l-197 -385h535l196 385h74l-197 -385h289z" />
    <glyph glyph-name="dollar" unicode="$" horiz-adv-x="1200" 
d="M1110 375q0 -170 -132 -283t-349 -121v-155h-74v157q-205 14 -329 131t-138 285l76 21q10 -156 127 -260t311 -104t312 91q116 92 116 238q0 92 -40 143q-22 28 -42 52t-80 56q-60 33 -127 55t-237 68q-170 45 -252 99q-137 92 -137 247t123 255t317 110v158h74v-156
q180 -10 305 -111q124 -102 151 -268l-75 -20q-23 149 -137 237q-115 88 -285 88t-282 -78q-112 -79 -111 -218q0 -95 68 -149q38 -30 68 -49t93 -41q88 -31 197 -58q235 -59 319 -119q119 -89 145 -159q25 -70 25 -142z" />
    <glyph glyph-name="percent" unicode="%" horiz-adv-x="1837" 
d="M1434 51q135 -1 217 101t82 249t-82 249t-217 104q-135 0 -217 -102t-82 -250q0 -146 82 -248t217 -103zM1434 -16q-168 0 -270 119q-101 120 -101 297t101 299q102 122 270 122t270 -122t102 -299q0 -176 -102 -296t-270 -120zM403 680q135 0 218 101q81 101 81 249
t-81 250t-217 102t-218 -102t-82 -248t82 -250q82 -102 217 -102zM406 0l954 1434h70l-951 -1434h-73zM403 612q-168 0 -269 121t-101 298t101 298t269 121q169 0 271 -121t102 -298t-102 -298t-271 -121z" />
    <glyph glyph-name="ampersand" unicode="&#x26;" horiz-adv-x="1452" 
d="M1047 518v191h-445q-190 0 -308 -80t-118 -237t120 -252t306 -95q248 1 346 119t99 354zM1395 780v-71h-273v-191q0 -270 -123 -408t-397 -139q-223 0 -363 116q-141 116 -141 287t94 264t232 107v3q-111 16 -199 101t-88 223t93 256q48 60 140 97t214 37q188 0 321 -106
t168 -307l-76 -21q-72 362 -415 363q-276 0 -349 -219q-16 -50 -16 -99q0 -127 100 -210t285 -83h793z" />
    <glyph glyph-name="quotesingle" unicode="'" horiz-adv-x="495" 
d="M207 989v445h82v-445h-82z" />
    <glyph glyph-name="parenleft" unicode="(" horiz-adv-x="702" 
d="M178 721q0 -416 112 -645t333 -309l-31 -68q-492 176 -492 1022q0 432 123 683t369 341l31 -72q-221 -80 -333 -308t-112 -644z" />
    <glyph glyph-name="parenright" unicode=")" horiz-adv-x="706" 
d="M608 721q0 -846 -491 -1022l-31 68q221 80 333 309t111 645q0 416 -111 644q-112 228 -333 308l31 72q247 -90 369 -341t122 -683z" />
    <glyph glyph-name="asterisk" unicode="*" horiz-adv-x="1085" 
d="M510 1434h65l-4 -301l287 92l21 -60l-287 -88l180 -248l-51 -36l-178 251l-176 -251l-52 36l179 248l-287 88l20 60l283 -92v301z" />
    <glyph glyph-name="plus" unicode="+" 
d="M1194 764v-72h-438v-434h-80v434h-438v72h438v426h80v-426h438z" />
    <glyph glyph-name="comma" unicode="," horiz-adv-x="389" 
d="M197 -39l16 10h-16q-29 -4 -53 18q-24 23 -24 55t23 51t55 19t54 -25q22 -26 20 -66q0 -154 -122 -295h-50q97 106 97 233z" />
    <glyph glyph-name="hyphen" unicode="-" horiz-adv-x="1372" 
d="M207 764h958v-72h-958v72z" />
    <glyph glyph-name="period" unicode="." horiz-adv-x="389" 
d="M266 42q0 -30 -21 -50t-51 -21q-30 0 -51 22q-20 21 -20 51t21 50q22 20 52 20t50 -21t20 -51z" />
    <glyph glyph-name="slash" unicode="/" horiz-adv-x="919" 
d="M57 0l734 1434h73l-731 -1434h-76z" />
    <glyph glyph-name="zero" unicode="0" horiz-adv-x="1470" 
d="M735 1386q-262 0 -409 -196q-148 -196 -148 -474t148 -474t409 -195q178 0 307 95q250 184 250 575q0 180 -60 330q-60 151 -190 245t-307 94zM735 1462q197 0 345 -105t220 -273t72 -368q0 -198 -72 -366t-220 -273t-345 -105t-345 104q-148 106 -220 274t-72 367
t72 367t220 272q148 106 345 106z" />
    <glyph glyph-name="one" unicode="1" horiz-adv-x="782" 
d="M575 1434v-1434h-79v1114l4 178l2 29h-2l-21 -23q-23 -22 -49 -52t-37 -40l-241 -237l-54 51l420 414h57z" />
    <glyph glyph-name="two" unicode="2" horiz-adv-x="1136" 
d="M1063 76v-76h-969v63q500 409 688 564q88 72 146 174q57 102 57 219q0 162 -109 265q-110 103 -280 104q-350 -1 -436 -320l-76 21q109 373 512 372q207 0 338 -125t131 -315q1 -108 -25 -166q-26 -57 -40 -89t-47 -71q-34 -39 -48 -58t-59 -57q-45 -39 -56 -49
q-12 -10 -62 -48t-54 -42l-465 -370l2 -2h6l68 4l88 2h690z" />
    <glyph glyph-name="three" unicode="3" horiz-adv-x="1204" 
d="M618 1462q124 0 220 -34t149 -89q105 -109 105 -250t-96 -237t-234 -102v-2q144 -8 244 -98t100 -240q0 -201 -136 -320t-343 -119t-354 113q-146 113 -175 301l72 21q20 -164 146 -262t315 -99q189 0 292 103q103 102 103 258t-111 230t-305 75h-127v71h129
q399 0 400 312q0 110 -94 202t-300 93q-337 0 -413 -324l-74 20q39 177 167 277t320 100z" />
    <glyph glyph-name="four" unicode="4" horiz-adv-x="1255" 
d="M893 485v608l4 162l2 56v6h-2l-20 -27q-39 -56 -144 -182l-387 -457q-71 -84 -130 -145l-19 -21l2 -2l268 2h426zM1184 485v-73h-215v-412h-76v412h-795v53l813 969h58v-949h215z" />
    <glyph glyph-name="five" unicode="5" horiz-adv-x="1167" 
d="M604 934q213 0 352 -135q140 -135 140 -344t-140 -346t-350 -137q-211 0 -348 112q-137 113 -174 299l74 20q32 -166 148 -262t296 -96t297 117t117 293t-117 293t-295 116q-291 0 -389 -219l-70 21l125 768h742v-76h-682l-51 -318q-27 -166 -48 -241l-8 -33l2 -2
q41 62 143 116t236 54z" />
    <glyph glyph-name="six" unicode="6" horiz-adv-x="1204" 
d="M178 462q0 -185 120 -301t317 -116q196 0 317 116t125 301t-118 298q-122 112 -321 112q-200 0 -320 -112t-120 -298zM616 944q230 0 374 -137t144 -347t-146 -349t-372 -139t-371 140q-146 140 -147 353q0 123 39 227t131 226l394 516h92l-496 -650l2 -2
q126 162 356 162z" />
    <glyph glyph-name="seven" unicode="7" horiz-adv-x="1114" 
d="M74 1358v76h983v-56l-774 -1378h-84l682 1212q37 71 80 127l14 21l-2 2h-12l-126 -4h-761z" />
    <glyph glyph-name="eight" unicode="8" horiz-adv-x="1253" 
d="M176 387q0 -158 120 -251t330 -93t330 93t121 251q0 158 -121 246q-120 88 -330 88t-330 -88t-120 -246zM626 1393q-172 0 -280 -85q-110 -85 -110 -217t110 -213t281 -79q173 2 281 82t108 211t-109 216t-281 85zM1155 375q0 -174 -144 -288t-384 -114t-384 114
q-145 114 -145 288t112 274t265 113v2q-94 4 -204 92q-109 88 -109 240t130 260t335 106q205 0 335 -108t130 -258q0 -152 -110 -240t-202 -92v-2q152 -12 264 -112t111 -275z" />
    <glyph glyph-name="nine" unicode="9" horiz-adv-x="1218" 
d="M598 1389q-190 -1 -320 -107t-130 -312t130 -308t320 -102t316 107q128 109 128 311t-126 306q-128 104 -318 105zM587 487q-233 1 -375 137t-142 351t149 351q150 136 379 136q230 0 376 -130t146 -365q0 -139 -68 -273t-233 -329l-313 -365h-92l551 651l-2 2
q-143 -166 -376 -166z" />
    <glyph glyph-name="colon" unicode=":" horiz-adv-x="389" 
d="M266 42q0 -30 -21 -50t-51 -21q-30 0 -51 22q-20 21 -20 51t21 50q22 20 52 20t50 -21t20 -51zM194 627q-30 0 -51 21q-20 22 -20 52t21 50q22 20 52 20t50 -22t20 -51q0 -30 -21 -50t-51 -20z" />
    <glyph glyph-name="semicolon" unicode=";" horiz-adv-x="415" 
d="M143 36q0 32 23 51q22 19 54 19t54 -26t21 -66q0 -154 -123 -295h-49q96 107 96 234l17 10h-17q-29 -4 -53 18q-24 23 -23 55zM212 627q-30 -1 -50 21t-20 52t21 50t51 20t50 -22t20 -51q0 -30 -20 -50q-22 -20 -52 -20z" />
    <glyph glyph-name="less" unicode="&#x3c;" 
d="M1184 252h-133l-826 500l826 499h133l-824 -499z" />
    <glyph glyph-name="equal" unicode="=" 
d="M238 600h956v-72h-956v72zM238 928h956v-72h-956v72z" />
    <glyph glyph-name="greater" unicode="&#x3e;" 
d="M246 252l823 500l-823 499h133l825 -499l-825 -500h-133z" />
    <glyph glyph-name="question" unicode="?" horiz-adv-x="1157" 
d="M508 0v322h84v-322h-84zM508 481v176q258 99 363 193t105 216t-76 215q-40 48 -119 77t-187 28q-346 0 -426 -321l-70 20q39 181 170 279t326 98q242 0 354 -114t111 -285q0 -172 -154 -284q-130 -95 -313 -163v-135h-84z" />
    <glyph glyph-name="at" unicode="@" horiz-adv-x="1619" 
d="M1071 719v125q0 100 -83 162t-212 61q-129 0 -211 -97q-82 -96 -81 -248t85 -240t214 -89t209 89t79 237zM1071 1094h66v-576q0 -59 37 -97t90 -38q88 0 142 95t54 249q0 293 -185 485t-466 193q-281 0 -465 -193q-184 -192 -184 -486t185 -496t464 -201q187 0 292 50
t130 78q26 27 29 27l51 -30q-25 -30 -75 -65q-162 -115 -427 -118q-305 0 -508 219q-203 218 -203 536t202 527t510 209t510 -209t202 -526q0 -178 -71 -290t-187 -111q-80 0 -132 50t-55 142l-2 2q-33 -86 -115 -140t-176 -54q-162 0 -266 110t-104 285q0 176 101 295
t269 119q88 0 158 -34t98 -67t29 -51h2v111z" />
    <glyph glyph-name="A" unicode="A" horiz-adv-x="1472" 
d="M375 522h723l-295 662q-13 30 -29 70t-26 63l-11 22h-2l-10 -22q-11 -23 -27 -64t-28 -69zM1331 0l-201 451h-788l-201 -451h-84l645 1434h68l645 -1434h-84z" />
    <glyph glyph-name="B" unicode="B" horiz-adv-x="1310" 
d="M285 72h471q160 0 265 93t105 241t-113 246q-114 97 -274 98h-454v-678zM285 819h403q150 0 244 80t94 199q0 120 -92 192t-246 72h-403v-543zM207 1434h495q182 0 293 -94t111 -246q0 -109 -83 -196t-183 -103v-2q124 -7 246 -111t122 -279t-124 -289t-330 -114h-547
v1434z" />
    <glyph glyph-name="C" unicode="C" horiz-adv-x="1564" 
d="M842 -29q-311 0 -528 212q-216 212 -216 534q0 321 216 533t528 212q209 0 381 -100t270 -272l-80 -21q-83 147 -235 233t-336 84q-283 0 -473 -186q-191 -186 -191 -481t190 -482t474 -188q194 0 352 96t242 263l77 -23q-92 -193 -270 -303t-401 -111z" />
    <glyph glyph-name="D" unicode="D" horiz-adv-x="1638" 
d="M285 76h532q268 0 456 173q187 173 187 462t-190 468t-471 179h-514v-1282zM207 1434h592q313 0 527 -204t214 -517t-210 -513t-513 -200h-610v1434z" />
    <glyph glyph-name="E" unicode="E" horiz-adv-x="1253" 
d="M285 76h848v-76h-926v1434h913v-76h-835v-547h678v-74h-678v-661z" />
    <glyph glyph-name="F" unicode="F" horiz-adv-x="1169" 
d="M1100 1358h-815v-586h657v-76h-657v-696h-78v1434h893v-76z" />
    <glyph glyph-name="G" unicode="G" horiz-adv-x="1632" 
d="M1438 262h-2q-59 -83 -160 -155q-191 -136 -434 -136q-311 0 -528 212q-216 212 -216 534q0 321 216 533t528 212q223 -8 390 -106t261 -266l-80 -21q-83 147 -235 233t-336 84q-283 0 -473 -186q-191 -186 -191 -481t190 -483t474 -189q209 -1 375 103t219 219v268h-467
v70h540v-711h-73v142l2 83v41z" />
    <glyph glyph-name="H" unicode="H" horiz-adv-x="1478" 
d="M1192 1434h80v-1434h-80v717h-907v-717h-78v1434h78v-641h907v641z" />
    <glyph glyph-name="I" unicode="I" horiz-adv-x="491" 
d="M285 0h-78v1434h78v-1434z" />
    <glyph glyph-name="J" unicode="J" horiz-adv-x="1316" 
d="M1075 1434h80v-861q0 -285 -148 -445t-429 -159q-200 1 -346 103t-199 270l80 20q45 -145 173 -231t292 -86q244 0 370 137t127 383v869z" />
    <glyph glyph-name="K" unicode="K" horiz-adv-x="1366" 
d="M283 610h2l45 45q45 45 114 116q70 71 107 108l555 555h98l-575 -576l639 -858h-94l-601 803l-288 -289v-514h-78v1434h78v-459l-2 -321v-44z" />
    <glyph glyph-name="L" unicode="L" horiz-adv-x="1140" 
d="M285 76h815v-76h-893v1434h78v-1358z" />
    <glyph glyph-name="M" unicode="M" horiz-adv-x="1683" 
d="M285 793v-793h-78v1434h74l399 -693q102 -172 147 -272l13 -23h2l10 23q75 143 152 272l399 693h74v-1434h-78v793q0 145 6 415v88h-2l-14 -26q-13 -25 -47 -84t-60 -107l-420 -727h-41l-420 727q-27 47 -59 107t-47 84l-14 26h-2v-88q6 -270 6 -415z" />
    <glyph glyph-name="N" unicode="N" horiz-adv-x="1531" 
d="M1247 469v965h78v-1434h-74l-807 1087q-84 114 -149 207l-12 19h-2l2 -43l2 -299v-971h-78v1434h74l802 -1080q127 -170 154 -204l14 -21h2v43q-6 135 -6 297z" />
    <glyph glyph-name="O" unicode="O" horiz-adv-x="1685" 
d="M842 1386q-284 0 -474 -186t-190 -481t190 -483t473 -188t475 188t192 482t-192 481q-191 187 -474 187zM98 717q0 321 216 533t528 212t529 -212q216 -212 216 -534t-216 -533q-216 -212 -528 -212t-529 212q-216 212 -216 534z" />
    <glyph glyph-name="P" unicode="P" horiz-adv-x="1171" 
d="M285 627h307q210 0 324 97t114 271q0 175 -117 269t-321 94h-307v-731zM207 1434h385q242 0 380 -117t138 -324t-138 -323t-380 -117h-307v-553h-78v1434z" />
    <glyph glyph-name="Q" unicode="Q" horiz-adv-x="1685" 
d="M841 47q283 1 475 189t192 482t-192 481q-191 187 -474 187t-473 -186q-191 -186 -191 -481t190 -483t473 -189zM801 -270v243q-299 15 -501 225t-202 526t216 526q216 212 528 212t529 -212q216 -212 216 -527t-203 -525t-501 -225v-243h-82z" />
    <glyph glyph-name="R" unicode="R" horiz-adv-x="1259" 
d="M285 639h307q210 0 324 97t114 267q0 171 -117 263t-321 92h-307v-719zM285 569v-569h-78v1434h385q242 0 380 -116t138 -319q0 -158 -84 -262t-240 -145l369 -592h-92l-354 578q-49 -8 -117 -9h-307z" />
    <glyph glyph-name="S" unicode="S" horiz-adv-x="1200" 
d="M1110 375q0 -176 -140 -290t-366 -114t-362 119q-137 119 -154 299l76 21q10 -156 127 -260t311 -104t312 91q116 92 116 238q0 92 -40 143q-22 28 -42 52t-80 56q-60 33 -127 55t-237 68q-170 45 -252 99q-137 92 -137 251t136 261t337 102t335 -102q133 -103 162 -277
l-75 -20q-23 149 -137 237q-115 88 -285 88t-282 -78q-112 -79 -111 -218q0 -95 68 -149q38 -30 68 -49t93 -41q88 -31 197 -58q235 -59 319 -119q119 -89 145 -159q25 -70 25 -142z" />
    <glyph glyph-name="T" unicode="T" horiz-adv-x="1198" 
d="M57 1434h1084v-76h-502v-1358h-80v1358h-502v76z" />
    <glyph glyph-name="U" unicode="U" horiz-adv-x="1454" 
d="M1214 1434h80v-861q0 -295 -144 -449t-423 -155q-279 0 -422 155t-143 449v861h78v-869q0 -256 122 -388t365 -132q487 0 487 520v869z" />
    <glyph glyph-name="V" unicode="V" horiz-adv-x="1468" 
d="M1329 1434h84l-643 -1434h-70l-643 1434h82l512 -1145q15 -31 35 -81t35 -83l12 -33h2l15 33q37 103 67 164z" />
    <glyph glyph-name="W" unicode="W" horiz-adv-x="1933" 
d="M1796 1434h78l-508 -1434h-61l-250 801q-72 219 -80 276l-6 23h-2l-6 -23q-11 -47 -80 -276l-252 -801h-60l-510 1434h80l396 -1115q18 -51 33 -101t22 -73l8 -22h2l6 22q7 40 49 174l283 893h57l285 -893q21 -68 49 -174l6 -22h2l6 22q8 23 24 73q15 50 32 101z" />
    <glyph glyph-name="X" unicode="X" horiz-adv-x="1347" 
d="M674 696h-2l-13 -16q-13 -18 -35 -50t-40 -59l-445 -571h-100l584 750l-531 684h98l388 -502q8 -12 32 -47t43 -62l19 -24h2l18 24q20 27 45 63t33 46l385 502h100l-530 -684l584 -750h-101l-444 571z" />
    <glyph glyph-name="Y" unicode="Y" horiz-adv-x="1273" 
d="M676 0h-78v739l-559 695h94l410 -510q20 -23 78 -99l16 -20h2l16 18q16 19 41 53t37 48l408 510h94l-559 -695v-739z" />
    <glyph glyph-name="Z" unicode="Z" horiz-adv-x="1390" 
d="M143 1358v76h1125v-72l-955 -1182q-59 -73 -84 -94l-10 -12l2 -2h8l105 4h934v-76h-1145v72l958 1183q16 20 41 45l41 41l15 17l-2 2h-28l-81 -2h-924z" />
    <glyph glyph-name="bracketleft" unicode="[" horiz-adv-x="643" 
d="M291 1677v-1908h274v-76h-358v2060h358v-76h-274z" />
    <glyph glyph-name="backslash" unicode="\" horiz-adv-x="919" 
d="M864 0h-78l-729 1434h74z" />
    <glyph glyph-name="bracketright" unicode="]" horiz-adv-x="671" 
d="M381 1677h-275v76h359v-2060h-359v76h275v1908z" />
    <glyph glyph-name="asciicircum" unicode="^" horiz-adv-x="1372" 
d="M1165 977l-51 -51l-428 436l-428 -436l-51 51l479 481z" />
    <glyph glyph-name="underscore" unicode="_" horiz-adv-x="1540" 
d="M207 0h1126v-61h-1126v61z" />
    <glyph glyph-name="grave" unicode="`" horiz-adv-x="614" 
d="M500 1522l-418 215l35 61l413 -223z" />
    <glyph glyph-name="a" unicode="a" horiz-adv-x="1472" 
d="M375 522h723l-295 662q-13 30 -29 70t-26 63l-11 22h-2l-10 -22q-11 -23 -27 -64t-28 -69zM1331 0l-201 451h-788l-201 -451h-84l645 1434h68l645 -1434h-84z" />
    <glyph glyph-name="b" unicode="b" horiz-adv-x="1310" 
d="M285 72h471q160 0 265 93t105 241t-113 246q-114 97 -274 98h-454v-678zM285 819h403q150 0 244 80t94 199q0 120 -92 192t-246 72h-403v-543zM207 1434h495q182 0 293 -94t111 -246q0 -109 -83 -196t-183 -103v-2q124 -7 246 -111t122 -279t-124 -289t-330 -114h-547
v1434z" />
    <glyph glyph-name="c" unicode="c" horiz-adv-x="1564" 
d="M842 -29q-311 0 -528 212q-216 212 -216 534q0 321 216 533t528 212q209 0 381 -100t270 -272l-80 -21q-83 147 -235 233t-336 84q-283 0 -473 -186q-191 -186 -191 -481t190 -482t474 -188q194 0 352 96t242 263l77 -23q-92 -193 -270 -303t-401 -111z" />
    <glyph glyph-name="d" unicode="d" horiz-adv-x="1638" 
d="M285 76h532q268 0 456 173q187 173 187 462t-190 468t-471 179h-514v-1282zM207 1434h592q313 0 527 -204t214 -517t-210 -513t-513 -200h-610v1434z" />
    <glyph glyph-name="e" unicode="e" horiz-adv-x="1253" 
d="M285 76h848v-76h-926v1434h913v-76h-835v-547h678v-74h-678v-661z" />
    <glyph glyph-name="f" unicode="f" horiz-adv-x="1169" 
d="M1100 1358h-815v-586h657v-76h-657v-696h-78v1434h893v-76z" />
    <glyph glyph-name="g" unicode="g" horiz-adv-x="1632" 
d="M1438 262h-2q-59 -83 -160 -155q-191 -136 -434 -136q-311 0 -528 212q-216 212 -216 534q0 321 216 533t528 212q223 -8 390 -106t261 -266l-80 -21q-83 147 -235 233t-336 84q-283 0 -473 -186q-191 -186 -191 -481t190 -483t474 -189q209 -1 375 103t219 219v268h-467
v70h540v-711h-73v142l2 83v41z" />
    <glyph glyph-name="h" unicode="h" horiz-adv-x="1478" 
d="M1192 1434h80v-1434h-80v717h-907v-717h-78v1434h78v-641h907v641z" />
    <glyph glyph-name="i" unicode="i" horiz-adv-x="491" 
d="M285 0h-78v1434h78v-1434z" />
    <glyph glyph-name="j" unicode="j" horiz-adv-x="1316" 
d="M1075 1434h80v-861q0 -285 -148 -445t-429 -159q-200 1 -346 103t-199 270l80 20q45 -145 173 -231t292 -86q244 0 370 137t127 383v869z" />
    <glyph glyph-name="k" unicode="k" horiz-adv-x="1366" 
d="M283 610h2l45 45q45 45 114 116q70 71 107 108l555 555h98l-575 -576l639 -858h-94l-601 803l-288 -289v-514h-78v1434h78v-459l-2 -321v-44z" />
    <glyph glyph-name="l" unicode="l" horiz-adv-x="1140" 
d="M285 76h815v-76h-893v1434h78v-1358z" />
    <glyph glyph-name="m" unicode="m" horiz-adv-x="1683" 
d="M285 793v-793h-78v1434h74l399 -693q102 -172 147 -272l13 -23h2l10 23q75 143 152 272l399 693h74v-1434h-78v793q0 145 6 415v88h-2l-14 -26q-13 -25 -47 -84t-60 -107l-420 -727h-41l-420 727q-27 47 -59 107t-47 84l-14 26h-2v-88q6 -270 6 -415z" />
    <glyph glyph-name="n" unicode="n" horiz-adv-x="1531" 
d="M1247 469v965h78v-1434h-74l-807 1087q-84 114 -149 207l-12 19h-2l2 -43l2 -299v-971h-78v1434h74l802 -1080q127 -170 154 -204l14 -21h2v43q-6 135 -6 297z" />
    <glyph glyph-name="o" unicode="o" horiz-adv-x="1685" 
d="M842 1386q-284 0 -474 -186t-190 -481t190 -483t473 -188t475 188t192 482t-192 481q-191 187 -474 187zM98 717q0 321 216 533t528 212t529 -212q216 -212 216 -534t-216 -533q-216 -212 -528 -212t-529 212q-216 212 -216 534z" />
    <glyph glyph-name="p" unicode="p" horiz-adv-x="1171" 
d="M285 627h307q210 0 324 97t114 271q0 175 -117 269t-321 94h-307v-731zM207 1434h385q242 0 380 -117t138 -324t-138 -323t-380 -117h-307v-553h-78v1434z" />
    <glyph glyph-name="q" unicode="q" horiz-adv-x="1685" 
d="M841 47q283 1 475 189t192 482t-192 481q-191 187 -474 187t-473 -186q-191 -186 -191 -481t190 -483t473 -189zM801 -270v243q-299 15 -501 225t-202 526t216 526q216 212 528 212t529 -212q216 -212 216 -527t-203 -525t-501 -225v-243h-82z" />
    <glyph glyph-name="r" unicode="r" horiz-adv-x="1259" 
d="M285 639h307q210 0 324 97t114 267q0 171 -117 263t-321 92h-307v-719zM285 569v-569h-78v1434h385q242 0 380 -116t138 -319q0 -158 -84 -262t-240 -145l369 -592h-92l-354 578q-49 -8 -117 -9h-307z" />
    <glyph glyph-name="s" unicode="s" horiz-adv-x="1200" 
d="M1110 375q0 -176 -140 -290t-366 -114t-362 119q-137 119 -154 299l76 21q10 -156 127 -260t311 -104t312 91q116 92 116 238q0 92 -40 143q-22 28 -42 52t-80 56q-60 33 -127 55t-237 68q-170 45 -252 99q-137 92 -137 251t136 261t337 102t335 -102q133 -103 162 -277
l-75 -20q-23 149 -137 237q-115 88 -285 88t-282 -78q-112 -79 -111 -218q0 -95 68 -149q38 -30 68 -49t93 -41q88 -31 197 -58q235 -59 319 -119q119 -89 145 -159q25 -70 25 -142z" />
    <glyph glyph-name="t" unicode="t" horiz-adv-x="1198" 
d="M57 1434h1084v-76h-502v-1358h-80v1358h-502v76z" />
    <glyph glyph-name="u" unicode="u" horiz-adv-x="1454" 
d="M1214 1434h80v-861q0 -295 -144 -449t-423 -155q-279 0 -422 155t-143 449v861h78v-869q0 -256 122 -388t365 -132q487 0 487 520v869z" />
    <glyph glyph-name="v" unicode="v" horiz-adv-x="1468" 
d="M1329 1434h84l-643 -1434h-70l-643 1434h82l512 -1145q15 -31 35 -81t35 -83l12 -33h2l15 33q37 103 67 164z" />
    <glyph glyph-name="w" unicode="w" horiz-adv-x="1933" 
d="M1796 1434h78l-508 -1434h-61l-250 801q-72 219 -80 276l-6 23h-2l-6 -23q-11 -47 -80 -276l-252 -801h-60l-510 1434h80l396 -1115q18 -51 33 -101t22 -73l8 -22h2l6 22q7 40 49 174l283 893h57l285 -893q21 -68 49 -174l6 -22h2l6 22q8 23 24 73q15 50 32 101z" />
    <glyph glyph-name="x" unicode="x" horiz-adv-x="1347" 
d="M674 696h-2l-13 -16q-13 -18 -35 -50t-40 -59l-445 -571h-100l584 750l-531 684h98l388 -502q8 -12 32 -47t43 -62l19 -24h2l18 24q20 27 45 63t33 46l385 502h100l-530 -684l584 -750h-101l-444 571z" />
    <glyph glyph-name="y" unicode="y" horiz-adv-x="1273" 
d="M676 0h-78v739l-559 695h94l410 -510q20 -23 78 -99l16 -20h2l16 18q16 19 41 53t37 48l408 510h94l-559 -695v-739z" />
    <glyph glyph-name="z" unicode="z" horiz-adv-x="1390" 
d="M143 1358v76h1125v-72l-955 -1182q-59 -73 -84 -94l-10 -12l2 -2h8l105 4h934v-76h-1145v72l958 1183q16 20 41 45l41 41l15 17l-2 2h-28l-81 -2h-924z" />
    <glyph glyph-name="braceleft" unicode="{" horiz-adv-x="733" 
d="M420 1343v-299q0 -248 -113 -323q113 -63 113 -326v-297q0 -334 274 -334v-75q-352 0 -352 432v285q0 195 -87 282q-20 21 -48 33q47 16 91 90q44 75 44 225v285q0 432 352 432v-76q-274 0 -274 -334z" />
    <glyph glyph-name="bar" unicode="|" horiz-adv-x="485" 
d="M281 -152h-74v1739h74v-1739z" />
    <glyph glyph-name="braceright" unicode="}" horiz-adv-x="733" 
d="M313 1343q0 334 -274 334v76q352 0 352 -432v-285q0 -203 88 -283q26 -25 47 -32q-87 -37 -120 -177q-14 -60 -15 -138v-285q0 -432 -352 -432v75q274 0 274 334v297q0 262 113 326q-113 76 -113 323v299z" />
    <glyph glyph-name="asciitilde" unicode="~" 
d="M538 776q-58 0 -99 -36q-40 -36 -48 -91l-72 19q15 80 75 128t138 48t140 -41q61 -41 115 -82q55 -41 111 -41t98 37t46 92l72 -21q-12 -80 -72 -126t-137 -48q-78 0 -138 41q-59 41 -115 81t-114 40z" />
    <glyph glyph-name="exclamdown" unicode="&#xa1;" horiz-adv-x="491" 
d="M207 952h78v-952h-78v952zM207 1434h78v-322h-78v322z" />
    <glyph glyph-name="cent" unicode="&#xa2;" horiz-adv-x="1144" 
d="M653 -29h-67v224q-207 11 -347 161t-141 365q0 215 140 363t346 161v217h69v-217q139 -8 252 -79t174 -187l-67 -21q-56 104 -160 162t-234 58q-192 0 -318 -126t-126 -330t126 -329t318 -125q137 0 246 64t164 180l66 -20q-59 -129 -176 -208t-265 -87v-226z" />
    <glyph glyph-name="sterling" unicode="&#xa3;" horiz-adv-x="1349" 
d="M1251 76v-76h-1044v76q182 39 197 243q7 98 -5 236l-14 156h-160v71h154l-21 230q-16 194 97 320t287 130q376 9 477 -379l-74 -20q-94 336 -393 326q-154 -3 -243 -109t-75 -268l21 -230h530v-71h-524l14 -156q19 -217 -13 -330t-120 -153l2 -2h14l174 4l186 2h533z" />
    <glyph glyph-name="currency" unicode="&#xa4;" horiz-adv-x="1323" 
d="M1114 700q0 190 -131 322t-320 133q-189 0 -321 -133q-132 -134 -131 -322q0 -188 131 -321q130 -133 320 -133t321 132t131 322zM1190 710q0 -198 -121 -345l156 -158l-47 -47l-156 155q-154 -143 -358 -143t-363 143l-156 -155l-47 47l158 160q-121 143 -121 341
t141 353l-147 147l47 47l152 -149q146 123 334 123t335 -121l150 147l47 -47l-147 -147q143 -153 143 -351z" />
    <glyph glyph-name="yen" unicode="&#xa5;" horiz-adv-x="1273" 
d="M1100 823v-69h-412l-12 -15v-75h424v-70h-424v-594h-78v594h-408v70h408v75l-12 15h-396v69h340l-491 611h94l410 -510q20 -23 78 -99l16 -20h2l16 18q16 19 41 53t37 48l408 510h94l-492 -611h357z" />
    <glyph glyph-name="brokenbar" unicode="&#xa6;" horiz-adv-x="485" 
d="M207 442h74v-594h-74v594zM207 1587h74v-573h-74v573z" />
    <glyph glyph-name="section" unicode="&#xa7;" horiz-adv-x="1071" 
d="M176 770q0 -67 61 -102q35 -20 59 -34t81 -28q57 -16 80 -21t61 -13t154 -35q100 18 166 70t66 118t-26 92q-49 53 -83 68q-100 45 -188 62q-87 17 -111 23t-41 11q-113 -15 -196 -67t-83 -144zM979 731q0 -166 -223 -221q221 -84 221 -252q0 -127 -124 -211t-321 -84
q-196 0 -312 89t-132 222l70 19q12 -115 107 -188t263 -73t270 63q101 65 101 163q1 63 -25 91q-26 27 -42 43t-50 32q-33 14 -65 29t-125 35q-92 20 -107 24q-207 45 -282 92q-103 62 -103 158t68 158t184 88q-201 68 -200 206q0 115 113 186q114 70 281 70t278 -72
t134 -192l-75 -22q-15 100 -105 159t-230 59t-230 -49q-90 -50 -91 -136q0 -86 101 -125q101 -38 198 -58t141 -32q43 -12 113 -38t105 -53t65 -73t29 -107z" />
    <glyph glyph-name="dieresis" unicode="&#xa8;" horiz-adv-x="761" 
d="M678 1636q0 -31 -20 -52t-53 -21q-31 -1 -53 21t-22 52t22 53q22 21 52 21t52 -22t22 -52zM155 1563q-32 0 -53 21q-20 22 -20 52t20 53q20 21 52 21t54 -22t22 -52q0 -31 -22 -52q-21 -21 -53 -21z" />
    <glyph glyph-name="copyright" unicode="&#xa9;" horiz-adv-x="1685" 
d="M852 338q-162 0 -266 106t-104 268t104 269q104 106 266 106q102 0 196 -56t134 -140l-62 -21q-35 68 -110 111q-76 43 -158 43q-133 0 -219 -87t-86 -223t86 -224t219 -87q88 -1 166 49t112 126l64 -21q-39 -95 -136 -157t-206 -62zM842 1395q-292 -1 -482 -187
t-190 -489t190 -491t480 -189q290 0 484 188q192 187 192 491t-192 490t-482 187zM98 717q0 321 216 533t529 212q312 0 528 -212t216 -534t-216 -533q-216 -212 -528 -212t-529 212q-216 212 -216 534z" />
    <glyph glyph-name="ordfeminine" unicode="&#xaa;" horiz-adv-x="706" 
d="M41 629h625v-66h-625v66zM354 1372h-2l-6 -20q-23 -89 -33 -113l-94 -227h266l-92 227q-8 23 -17 57t-16 56zM197 954l-78 -186h-72l283 682h45l282 -682h-73l-76 186h-311z" />
    <glyph glyph-name="guillemotleft" unicode="&#xab;" horiz-adv-x="1497" 
d="M1239 1200l51 -49l-434 -430l434 -430l-51 -49l-481 479zM688 1200l51 -49l-434 -430l434 -430l-51 -49l-481 479z" />
    <glyph glyph-name="softhyphen" unicode="&#xad;" horiz-adv-x="1372" 
d="M207 764h958v-72h-958v72z" />
    <glyph glyph-name="registered" unicode="&#xae;" horiz-adv-x="1685" 
d="M692 698h156q209 0 209 167t-209 167h-156v-334zM627 1094h221q129 0 202 -60t72 -168q0 -170 -164 -215l195 -311h-76l-186 299q-14 -2 -43 -2h-156v-297h-65v754zM841 39q291 0 483 188q192 187 192 491t-192 490t-482 186q-292 0 -482 -186t-190 -489t190 -492
q191 -188 481 -188zM98 717q0 321 216 533t529 212q312 0 528 -212t216 -534t-216 -533q-216 -212 -528 -212t-529 212q-216 212 -216 534z" />
    <glyph glyph-name="macron" unicode="&#xaf;" horiz-adv-x="794" 
d="M78 1505h637v-63h-637v63z" />
    <glyph glyph-name="degree" unicode="&#xb0;" horiz-adv-x="555" 
d="M276 1284q51 0 90 37q38 37 37 88q0 51 -37 87q-38 36 -90 36t-88 -36t-36 -87t36 -88t88 -37zM461 1409q1 -74 -55 -128t-131 -54t-127 53t-52 129t52 128t127 52t131 -53t55 -127z" />
    <glyph glyph-name="plusminus" unicode="&#xb1;" 
d="M238 -20v71h956v-71h-956zM756 764h438v-72h-438v-422h-80v422h-438v72h438v426h80v-426z" />
    <glyph glyph-name="twosuperior" unicode="&#xb2;" horiz-adv-x="661" 
d="M332 1026h280v-65h-553v53l367 289q127 103 127 232q0 71 -61 126q-60 55 -156 55t-150 -45t-80 -141l-65 18q61 233 299 234q119 0 200 -75t81 -183q0 -141 -160 -271q-90 -70 -167 -129t-161 -108l2 -2q74 12 197 12z" />
    <glyph glyph-name="threesuperior" unicode="&#xb3;" horiz-adv-x="659" 
d="M616 1174q0 -96 -78 -162q-78 -68 -196 -68q-119 0 -205 71t-96 185l68 14q1 -92 67 -148t166 -56t154 51q53 51 53 126q1 75 -59 119t-154 44h-86v57h86q94 0 150 46q56 45 56 109t-49 110q-50 46 -155 46q-178 0 -217 -184l-64 20q15 102 93 164t202 64q124 0 191 -62
t67 -144q0 -83 -54 -136t-134 -60v-2q82 -6 138 -57t56 -147z" />
    <glyph glyph-name="acute" unicode="&#xb4;" horiz-adv-x="614" 
d="M496 1798l34 -61l-417 -215l-31 53z" />
    <glyph glyph-name="paragraph" unicode="&#xb6;" horiz-adv-x="1146" 
d="M518 1434h422v-1434h-78v1358h-176v-1358h-78v750h-90q-200 0 -310 91t-110 252t110 251t310 90z" />
    <glyph glyph-name="periodcentered" unicode="&#xb7;" horiz-adv-x="389" 
d="M194 627q-30 0 -51 21q-20 22 -20 52t21 50q22 20 52 20t50 -22t20 -51q0 -30 -21 -50t-51 -20z" />
    <glyph glyph-name="cedilla" unicode="&#xb8;" horiz-adv-x="464" 
d="M381 -270q0 -80 -56 -127t-147 -47h-96l24 57h72q63 0 103 32q39 32 39 84t-39 86t-103 33h-86l55 152h64l-37 -96q94 2 150 -46t57 -128z" />
    <glyph glyph-name="onesuperior" unicode="&#xb9;" horiz-adv-x="411" 
d="M256 1493q0 104 10 174v14h-2l-33 -43q-14 -18 -28 -32l-125 -123l-45 43l246 239h47v-804h-70v532z" />
    <glyph glyph-name="ordmasculine" unicode="&#xba;" horiz-adv-x="755" 
d="M43 629h672v-66h-672v66zM86 1107q0 -126 83 -209t207 -83t208 83t84 209t-84 209t-208 83t-207 -83t-83 -209zM377 750q-149 0 -253 102t-104 255t104 255t253 102q150 0 254 -102t104 -255t-104 -255t-254 -102z" />
    <glyph glyph-name="guillemotright" unicode="&#xbb;" horiz-adv-x="1497" 
d="M809 1200l483 -479l-481 -479l-51 49l434 430l-434 430zM258 1200l481 -479l-481 -479l-51 49l434 430l-434 430z" />
    <glyph glyph-name="onequarter" unicode="&#xbc;" horiz-adv-x="1308" 
d="M1087 285v202l3 101l6 96q0 10 2 16v7h-2l-23 -31q-56 -80 -127 -166l-110 -125q-23 -29 -91 -86l-18 -14l2 -2h33l76 2h249zM1268 285v-64h-113v-221h-68v221h-432v49l455 535h45v-520h113zM1067 1434h70l-953 -1434h-71zM256 1161q0 104 10 174v15h-2l-33 -43
q-14 -18 -28 -33l-125 -123l-45 43l246 240h47v-805h-70v532z" />
    <glyph glyph-name="onehalf" unicode="&#xbd;" horiz-adv-x="1398" 
d="M1350 66v-66h-553v53l366 289q127 103 127 232q0 71 -61 126q-61 56 -157 56t-148 -45q-53 -45 -80 -142l-66 19q61 233 299 233q119 0 200 -75t81 -183q0 -141 -160 -270q-136 -106 -196 -153t-132 -85l2 -2q74 12 197 13h281zM113 0l954 1434h70l-953 -1434h-71z
M256 1161q0 104 10 174v15h-2l-33 -43q-14 -18 -28 -33l-125 -123l-45 43l246 240h47v-805h-70v532z" />
    <glyph glyph-name="threequarters" unicode="&#xbe;" horiz-adv-x="1474" 
d="M1253 285v202l2 101l7 96v16l2 7h-2l-23 -31q-56 -80 -127 -166l-111 -125q-17 -21 -90 -86l-18 -14l2 -2h33l76 2h249zM1434 285v-64h-113v-221h-68v221h-432v49l455 535h45v-520h113zM1231 1434h72l-953 -1434h-71zM616 842q0 -96 -78 -162q-78 -68 -196 -68
q-119 0 -205 71t-96 185l68 15q2 -92 67 -149q66 -56 166 -56t154 51q53 51 53 126q1 75 -59 119t-154 44h-86v57h86q94 0 150 46q56 45 56 109t-49 110q-50 46 -155 46q-178 0 -217 -184l-64 21q15 103 93 165t202 62t191 -61t67 -145t-54 -136q-54 -53 -134 -59v-2
q82 -5 138 -57t56 -148z" />
    <glyph glyph-name="questiondown" unicode="&#xbf;" horiz-adv-x="1157" 
d="M649 952v-176q-258 -100 -363 -193q-106 -93 -106 -215t77 -215q40 -48 119 -77t187 -29q346 0 426 322l70 -21q-39 -180 -170 -278t-326 -99q-241 0 -353 114t-112 285t154 284q130 95 313 163v135h84zM649 1434v-322h-84v322h84z" />
    <glyph glyph-name="Agrave" unicode="&#xc0;" horiz-adv-x="1472" 
d="M375 522h723l-295 662q-13 30 -29 70t-26 63l-11 22h-2l-10 -22q-11 -23 -27 -64t-28 -69zM1331 0l-201 451h-788l-201 -451h-84l645 1434h68l645 -1434h-84zM883 1575l-31 -53l-418 215l35 61z" />
    <glyph glyph-name="Aacute" unicode="&#xc1;" horiz-adv-x="1472" 
d="M375 522h723l-295 662q-13 30 -29 70t-26 63l-11 22h-2l-10 -22q-11 -23 -27 -64t-28 -69zM1331 0l-201 451h-788l-201 -451h-84l645 1434h68l645 -1434h-84zM1014 1737l-418 -215l-31 53l414 223z" />
    <glyph glyph-name="Acircumflex" unicode="&#xc2;" horiz-adv-x="1472" 
d="M375 522h723l-295 662q-13 30 -29 70t-26 63l-11 22h-2l-10 -22q-11 -23 -27 -64t-28 -69zM1331 0l-201 451h-788l-201 -451h-84l645 1434h68l645 -1434h-84zM735 1761l-264 -225l-47 47l311 264l312 -264l-48 -47z" />
    <glyph glyph-name="Atilde" unicode="&#xc3;" horiz-adv-x="1472" 
d="M375 522h723l-295 662q-13 30 -29 70t-26 63l-11 22h-2l-10 -22q-11 -23 -27 -64t-28 -69zM1331 0l-201 451h-788l-201 -451h-84l645 1434h68l645 -1434h-84zM870 1569q-66 0 -145 56q-78 56 -122 56q-44 -1 -75 -29t-30 -71h-70q0 70 50 115t120 45q70 -1 145 -57
q76 -56 118 -56t72 29t32 72h69q2 -70 -48 -115t-116 -45z" />
    <glyph glyph-name="Adieresis" unicode="&#xc4;" horiz-adv-x="1472" 
d="M375 522h723l-295 662q-13 30 -29 70t-26 63l-11 22h-2l-10 -22q-11 -23 -27 -64t-28 -69zM1331 0l-201 451h-788l-201 -451h-84l645 1434h68l645 -1434h-84zM957 1563q-31 -1 -53 21t-22 52t22 53q22 21 52 21t53 -22q21 -22 21 -52q0 -31 -20 -52t-53 -21zM507 1563
q-32 -1 -52 21q-21 22 -21 52t20 53q20 21 53 21q31 0 53 -22t22 -52q0 -31 -22 -52t-53 -21z" />
    <glyph glyph-name="Aring" unicode="&#xc5;" horiz-adv-x="1472" 
d="M375 522h723l-295 662q-13 30 -29 70t-26 63l-11 22h-2l-10 -22q-11 -23 -27 -64t-28 -69zM612 1609q0 -52 37 -89t88 -37t88 37t37 89t-37 87t-89 35t-88 -35t-36 -87zM555 1613q0 71 52 123t128 52t130 -52q55 -52 55 -123t-43 -121t-105 -62l643 -1430h-84l-201 451
h-788l-201 -451h-84l643 1430q-63 12 -104 62t-41 121z" />
    <glyph glyph-name="AE" unicode="&#xc6;" horiz-adv-x="1992" 
d="M946 522v836h-176l-20 -43q-60 -137 -99 -219l-266 -574h561zM1028 76h846v-76h-928v451h-596l-209 -451h-84l668 1434h1137v-76h-834v-547h680v-74h-680v-661z" />
    <glyph glyph-name="Ccedilla" unicode="&#xc7;" horiz-adv-x="1564" 
d="M1026 -270q0 -80 -56 -127t-147 -47h-96l25 57h71q63 0 103 32q39 32 39 84t-39 86t-103 33h-86l45 125q-292 23 -488 231t-196 522t216 524q216 212 528 212q209 0 381 -100t270 -272l-80 -21q-83 147 -235 233t-336 84q-283 0 -473 -186q-191 -186 -191 -481t190 -482
t474 -188q194 1 352 97t242 262l77 -23q-90 -190 -268 -301t-399 -113l-27 -67q95 2 151 -46t56 -128z" />
    <glyph glyph-name="Egrave" unicode="&#xc8;" horiz-adv-x="1253" 
d="M285 76h848v-76h-926v1434h913v-76h-835v-547h678v-74h-678v-661zM809 1575l-31 -53l-418 215l35 61z" />
    <glyph glyph-name="Eacute" unicode="&#xc9;" horiz-adv-x="1253" 
d="M285 76h848v-76h-926v1434h913v-76h-835v-547h678v-74h-678v-661zM940 1737l-418 -215l-30 53l413 223z" />
    <glyph glyph-name="Ecircumflex" unicode="&#xca;" horiz-adv-x="1253" 
d="M285 76h848v-76h-926v1434h913v-76h-835v-547h678v-74h-678v-661zM662 1761l-265 -225l-47 47l312 264l311 -264l-47 -47z" />
    <glyph glyph-name="Edieresis" unicode="&#xcb;" horiz-adv-x="1253" 
d="M285 76h848v-76h-926v1434h913v-76h-835v-547h678v-74h-678v-661zM884 1563q-32 -1 -54 21t-22 52t22 53q22 21 53 21t53 -22t20 -52q0 -31 -20 -52t-52 -21zM433 1563q-32 -1 -52 21q-21 22 -21 52t20 53q20 21 53 21q31 0 53 -22t22 -52q0 -31 -22 -52t-53 -21z" />
    <glyph glyph-name="Igrave" unicode="&#xcc;" horiz-adv-x="491" 
d="M285 0h-78v1434h78v-1434zM360 1522l-417 215l34 61l414 -223z" />
    <glyph glyph-name="Iacute" unicode="&#xcd;" horiz-adv-x="491" 
d="M285 0h-78v1434h78v-1434zM487 1798l35 -61l-418 -215l-30 53z" />
    <glyph glyph-name="Icircumflex" unicode="&#xce;" horiz-adv-x="491" 
d="M285 0h-78v1434h78v-1434zM-68 1583l312 264l311 -264l-47 -47l-264 225l-264 -225z" />
    <glyph glyph-name="Idieresis" unicode="&#xcf;" horiz-adv-x="491" 
d="M285 0h-78v1434h78v-1434zM539 1636q-1 -31 -21 -52t-52 -21q-32 -1 -54 21t-21 52q0 30 22 53q23 21 53 21t52 -22t21 -52zM15 1563q-32 -1 -52 21t-20 52t20 53q20 21 52 21t54 -22q21 -22 21 -52q0 -31 -22 -52t-53 -21z" />
    <glyph glyph-name="Eth" unicode="&#xd0;" horiz-adv-x="1640" 
d="M285 76h532q268 0 456 173q187 173 187 462t-190 468t-471 179h-514v-588h438v-74h-438v-620zM207 1434h592q313 0 527 -204t214 -517t-210 -513t-513 -200h-610v696h-109v74h109v664z" />
    <glyph glyph-name="Ntilde" unicode="&#xd1;" horiz-adv-x="1531" 
d="M1247 469v965h78v-1434h-74l-807 1087q-84 114 -149 207l-12 19h-2l2 -43l2 -299v-971h-78v1434h74l802 -1080q127 -170 154 -204l14 -21h2v43q-6 135 -6 297zM902 1569q-66 0 -144 56t-122 56q-44 -1 -75 -29t-31 -71h-69q0 70 50 115q49 45 119 45q70 -1 147 -57
t118 -56t71 29q29 29 31 72h70q2 -70 -48 -115q-51 -45 -117 -45z" />
    <glyph glyph-name="Ograve" unicode="&#xd2;" horiz-adv-x="1685" 
d="M842 1386q-284 0 -474 -186t-190 -481t190 -483t473 -188t475 188t192 482t-192 481q-191 187 -474 187zM98 717q0 321 216 533t528 212t529 -212q216 -212 216 -534t-216 -533q-216 -212 -528 -212t-529 212q-216 212 -216 534zM967 1522l-418 215l35 61l413 -223z" />
    <glyph glyph-name="Oacute" unicode="&#xd3;" horiz-adv-x="1685" 
d="M842 1386q-284 0 -474 -186t-190 -481t190 -483t473 -188t475 188t192 482t-192 481q-191 187 -474 187zM98 717q0 321 216 533t528 212t529 -212q216 -212 216 -534t-216 -533q-216 -212 -528 -212t-529 212q-216 212 -216 534zM1094 1798l34 -61l-417 -215l-31 53z" />
    <glyph glyph-name="Ocircumflex" unicode="&#xd4;" horiz-adv-x="1685" 
d="M842 1386q-284 0 -474 -186t-190 -481t190 -483t473 -188t475 188t192 482t-192 481q-191 187 -474 187zM98 717q0 321 216 533t528 212t529 -212q216 -212 216 -534t-216 -533q-216 -212 -528 -212t-529 212q-216 212 -216 534zM539 1583l311 264l311 -264l-47 -47
l-264 225l-264 -225z" />
    <glyph glyph-name="Otilde" unicode="&#xd5;" horiz-adv-x="1685" 
d="M842 1386q-284 0 -474 -186t-190 -481t190 -483t473 -188t475 188t192 482t-192 481q-191 187 -474 187zM98 717q0 321 216 533t528 212t529 -212q216 -212 216 -534t-216 -533q-216 -212 -528 -212t-529 212q-216 212 -216 534zM984 1569q-66 0 -144 56t-122 56
q-44 -1 -75 -29t-31 -71h-69q0 70 50 115q49 45 119 45q70 -1 146 -57t118 -56t72 29q29 29 31 72h70q2 -70 -48 -115q-51 -45 -117 -45z" />
    <glyph glyph-name="Odieresis" unicode="&#xd6;" horiz-adv-x="1685" 
d="M842 1386q-284 0 -474 -186t-190 -481t190 -483t473 -188t475 188t192 482t-192 481q-191 187 -474 187zM98 717q0 321 216 533t528 212t529 -212q216 -212 216 -534t-216 -533q-216 -212 -528 -212t-529 212q-216 212 -216 534zM1145 1636q-1 -31 -21 -52t-52 -21
q-32 -1 -54 21t-21 52q0 30 22 53q23 21 53 21t52 -22t21 -52zM622 1563q-32 0 -53 21q-20 22 -20 52t20 53q21 21 53 21t54 -22t20 -52q0 -31 -21 -52t-53 -21z" />
    <glyph glyph-name="multiply" unicode="&#xd7;" 
d="M1040 1118l52 -51l-324 -326l326 -325l-54 -51l-325 325l-326 -325l-51 51l326 325l-326 326l51 51l326 -323z" />
    <glyph glyph-name="Oslash" unicode="&#xd8;" horiz-adv-x="1685" 
d="M842 47q282 1 474 189t191 481q0 324 -227 514l-815 -1073q164 -111 377 -111zM179 704q0 -310 231 -505l815 1075q-168 113 -383 112q-283 0 -473 -186t-190 -496zM842 -29q-233 0 -422 125l-78 -102l-55 43l78 102q-266 217 -267 578q0 321 216 533t528 212
q238 0 428 -129l84 109l55 -41l-84 -111q123 -102 193 -250t69 -323q0 -322 -216 -534t-529 -212z" />
    <glyph glyph-name="Ugrave" unicode="&#xd9;" horiz-adv-x="1454" 
d="M1214 1434h80v-861q0 -295 -144 -449t-423 -155q-279 0 -422 155t-143 449v861h78v-869q0 -256 122 -388t365 -132q487 0 487 520v869zM848 1522l-418 215l35 61l414 -223z" />
    <glyph glyph-name="Uacute" unicode="&#xda;" horiz-adv-x="1454" 
d="M1214 1434h80v-861q0 -295 -144 -449t-423 -155q-279 0 -422 155t-143 449v861h78v-869q0 -256 122 -388t365 -132q487 0 487 520v869zM975 1798l35 -61l-418 -215l-31 53z" />
    <glyph glyph-name="Ucircumflex" unicode="&#xdb;" horiz-adv-x="1454" 
d="M1214 1434h80v-861q0 -295 -144 -449t-423 -155q-279 0 -422 155t-143 449v861h78v-869q0 -256 122 -388t365 -132q487 0 487 520v869zM420 1583l311 264l311 -264l-47 -47l-264 225l-264 -225z" />
    <glyph glyph-name="Udieresis" unicode="&#xdc;" horiz-adv-x="1454" 
d="M1214 1434h80v-861q0 -295 -144 -449t-423 -155q-279 0 -422 155t-143 449v861h78v-869q0 -256 122 -388t365 -132q487 0 487 520v869zM953 1563q-31 -1 -53 21t-22 52t22 53q22 21 52 21t53 -22q21 -22 21 -52q0 -31 -20 -52t-53 -21zM503 1563q-32 -1 -52 21
q-21 22 -21 52t20 53q20 21 53 21q31 0 53 -22t22 -52q0 -31 -22 -52t-53 -21z" />
    <glyph glyph-name="Yacute" unicode="&#xdd;" horiz-adv-x="1273" 
d="M676 0h-78v739l-559 695h94l410 -510q20 -23 78 -99l16 -20h2l16 18q16 19 41 53t37 48l408 510h94l-559 -695v-739zM879 1798l34 -61l-417 -215l-31 53z" />
    <glyph glyph-name="Thorn" unicode="&#xde;" horiz-adv-x="1198" 
d="M285 362h362q164 0 266 100q103 100 103 262q0 161 -102 261t-267 98h-362v-721zM285 1159h362q199 0 324 -122q125 -123 125 -315t-125 -314t-324 -121h-362v-287h-78v1434h78v-275z" />
    <glyph glyph-name="germandbls" unicode="&#xdf;" horiz-adv-x="1515" 
d="M285 1358v-1358h-78v1434h1067l-262 -471q-30 -58 -78 -127l-16 -29l2 -2h16q223 2 352 -114t129 -299t-129 -302t-330 -119q-156 0 -288 77t-195 208l76 23q55 -106 165 -171t259 -65t257 98q108 97 108 243t-101 248q-100 102 -281 103h-112v70l217 393q12 25 36 65
t40 68l18 27l-2 2h-31l-75 -2h-764z" />
    <glyph glyph-name="agrave" unicode="&#xe0;" horiz-adv-x="1472" 
d="M375 522h723l-295 662q-13 30 -29 70t-26 63l-11 22h-2l-10 -22q-11 -23 -27 -64t-28 -69zM1331 0l-201 451h-788l-201 -451h-84l645 1434h68l645 -1434h-84zM883 1575l-31 -53l-418 215l35 61z" />
    <glyph glyph-name="aacute" unicode="&#xe1;" horiz-adv-x="1472" 
d="M375 522h723l-295 662q-13 30 -29 70t-26 63l-11 22h-2l-10 -22q-11 -23 -27 -64t-28 -69zM1331 0l-201 451h-788l-201 -451h-84l645 1434h68l645 -1434h-84zM1014 1737l-418 -215l-31 53l414 223z" />
    <glyph glyph-name="acircumflex" unicode="&#xe2;" horiz-adv-x="1472" 
d="M375 522h723l-295 662q-13 30 -29 70t-26 63l-11 22h-2l-10 -22q-11 -23 -27 -64t-28 -69zM1331 0l-201 451h-788l-201 -451h-84l645 1434h68l645 -1434h-84zM735 1761l-264 -225l-47 47l311 264l312 -264l-48 -47z" />
    <glyph glyph-name="atilde" unicode="&#xe3;" horiz-adv-x="1472" 
d="M375 522h723l-295 662q-13 30 -29 70t-26 63l-11 22h-2l-10 -22q-11 -23 -27 -64t-28 -69zM1331 0l-201 451h-788l-201 -451h-84l645 1434h68l645 -1434h-84zM870 1569q-66 0 -145 56q-78 56 -122 56q-44 -1 -75 -29t-30 -71h-70q0 70 50 115t120 45q70 -1 145 -57
q76 -56 118 -56t72 29t32 72h69q2 -70 -48 -115t-116 -45z" />
    <glyph glyph-name="adieresis" unicode="&#xe4;" horiz-adv-x="1472" 
d="M375 522h723l-295 662q-13 30 -29 70t-26 63l-11 22h-2l-10 -22q-11 -23 -27 -64t-28 -69zM1331 0l-201 451h-788l-201 -451h-84l645 1434h68l645 -1434h-84zM957 1563q-31 -1 -53 21t-22 52t22 53q22 21 52 21t53 -22q21 -22 21 -52q0 -31 -20 -52t-53 -21zM507 1563
q-32 -1 -52 21q-21 22 -21 52t20 53q20 21 53 21q31 0 53 -22t22 -52q0 -31 -22 -52t-53 -21z" />
    <glyph glyph-name="aring" unicode="&#xe5;" horiz-adv-x="1472" 
d="M375 522h723l-295 662q-13 30 -29 70t-26 63l-11 22h-2l-10 -22q-11 -23 -27 -64t-28 -69zM612 1609q0 -52 37 -89t88 -37t88 37t37 89t-37 87t-89 35t-88 -35t-36 -87zM555 1613q0 71 52 123t128 52t130 -52q55 -52 55 -123t-43 -121t-105 -62l643 -1430h-84l-201 451
h-788l-201 -451h-84l643 1430q-63 12 -104 62t-41 121z" />
    <glyph glyph-name="ae" unicode="&#xe6;" horiz-adv-x="1992" 
d="M946 522v836h-176l-20 -43q-60 -137 -99 -219l-266 -574h561zM1028 76h846v-76h-928v451h-596l-209 -451h-84l668 1434h1137v-76h-834v-547h680v-74h-680v-661z" />
    <glyph glyph-name="ccedilla" unicode="&#xe7;" horiz-adv-x="1564" 
d="M1026 -270q0 -80 -56 -127t-147 -47h-96l25 57h71q63 0 103 32q39 32 39 84t-39 86t-103 33h-86l45 125q-292 23 -488 231t-196 522t216 524q216 212 528 212q209 0 381 -100t270 -272l-80 -21q-83 147 -235 233t-336 84q-283 0 -473 -186q-191 -186 -191 -481t190 -482
t474 -188q194 1 352 97t242 262l77 -23q-90 -190 -268 -301t-399 -113l-27 -67q95 2 151 -46t56 -128z" />
    <glyph glyph-name="egrave" unicode="&#xe8;" horiz-adv-x="1253" 
d="M285 76h848v-76h-926v1434h913v-76h-835v-547h678v-74h-678v-661zM799 1575l-31 -53l-418 215l35 61z" />
    <glyph glyph-name="eacute" unicode="&#xe9;" horiz-adv-x="1253" 
d="M285 76h848v-76h-926v1434h913v-76h-835v-547h678v-74h-678v-661zM930 1737l-418 -215l-31 53l414 223z" />
    <glyph glyph-name="ecircumflex" unicode="&#xea;" horiz-adv-x="1253" 
d="M285 76h848v-76h-926v1434h913v-76h-835v-547h678v-74h-678v-661zM651 1761l-264 -225l-47 47l311 264l312 -264l-48 -47z" />
    <glyph glyph-name="edieresis" unicode="&#xeb;" horiz-adv-x="1253" 
d="M285 76h848v-76h-926v1434h913v-76h-835v-547h678v-74h-678v-661zM946 1636q0 -31 -20 -52t-53 -21q-31 -1 -53 21t-22 52t22 53q22 21 54 21t52 -21q20 -22 20 -53zM498 1636q0 -31 -22 -52t-53 -21q-32 -1 -52 21q-21 22 -21 52t22 53q22 21 52 21t52 -22t22 -52z" />
    <glyph glyph-name="igrave" unicode="&#xec;" horiz-adv-x="491" 
d="M285 0h-78v1434h78v-1434zM362 1522l-417 215l35 61l413 -223z" />
    <glyph glyph-name="iacute" unicode="&#xed;" horiz-adv-x="491" 
d="M285 0h-78v1434h78v-1434zM489 1798l35 -61l-418 -215l-30 53z" />
    <glyph glyph-name="icircumflex" unicode="&#xee;" horiz-adv-x="491" 
d="M285 0h-78v1434h78v-1434zM-66 1583l312 264l311 -264l-47 -47l-264 225l-264 -225z" />
    <glyph glyph-name="idieresis" unicode="&#xef;" horiz-adv-x="491" 
d="M285 0h-78v1434h78v-1434zM468 1563q-32 -1 -54 21t-21 52q0 30 22 53q21 21 53 21t52 -22t20 -52q0 -31 -20 -52t-52 -21zM17 1563q-32 -1 -52 21t-20 52t21 53q22 21 52 21t53 -22q21 -22 21 -52q0 -31 -22 -52t-53 -21z" />
    <glyph glyph-name="eth" unicode="&#xf0;" horiz-adv-x="1640" 
d="M285 76h532q268 0 456 173q187 173 187 462t-190 468t-471 179h-514v-588h438v-74h-438v-620zM207 1434h592q313 0 527 -204t214 -517t-210 -513t-513 -200h-610v696h-109v74h109v664z" />
    <glyph glyph-name="ntilde" unicode="&#xf1;" horiz-adv-x="1531" 
d="M1247 469v965h78v-1434h-74l-807 1087q-84 114 -149 207l-12 19h-2l2 -43l2 -299v-971h-78v1434h74l802 -1080q127 -170 154 -204l14 -21h2v43q-6 135 -6 297zM902 1569q-66 0 -144 56t-122 56q-44 -1 -75 -29t-31 -71h-69q0 70 50 115q49 45 119 45q70 -1 147 -57
t118 -56t71 29q29 29 31 72h70q2 -70 -48 -115q-51 -45 -117 -45z" />
    <glyph glyph-name="ograve" unicode="&#xf2;" horiz-adv-x="1685" 
d="M842 1386q-284 0 -474 -186t-190 -481t190 -483t473 -188t475 188t192 482t-192 481q-191 187 -474 187zM98 717q0 321 216 533t528 212t529 -212q216 -212 216 -534t-216 -533q-216 -212 -528 -212t-529 212q-216 212 -216 534zM963 1522l-418 215l35 61l413 -223z" />
    <glyph glyph-name="oacute" unicode="&#xf3;" horiz-adv-x="1685" 
d="M842 1386q-284 0 -474 -186t-190 -481t190 -483t473 -188t475 188t192 482t-192 481q-191 187 -474 187zM98 717q0 321 216 533t528 212t529 -212q216 -212 216 -534t-216 -533q-216 -212 -528 -212t-529 212q-216 212 -216 534zM1090 1798l34 -61l-417 -215l-31 53z" />
    <glyph glyph-name="ocircumflex" unicode="&#xf4;" horiz-adv-x="1685" 
d="M842 1386q-284 0 -474 -186t-190 -481t190 -483t473 -188t475 188t192 482t-192 481q-191 187 -474 187zM98 717q0 321 216 533t528 212t529 -212q216 -212 216 -534t-216 -533q-216 -212 -528 -212t-529 212q-216 212 -216 534zM535 1583l311 264l311 -264l-47 -47
l-264 225l-264 -225z" />
    <glyph glyph-name="otilde" unicode="&#xf5;" horiz-adv-x="1685" 
d="M842 1386q-284 0 -474 -186t-190 -481t190 -483t473 -188t475 188t192 482t-192 481q-191 187 -474 187zM98 717q0 321 216 533t528 212t529 -212q216 -212 216 -534t-216 -533q-216 -212 -528 -212t-529 212q-216 212 -216 534zM980 1569q-66 0 -144 56t-122 56
q-44 -1 -75 -29t-31 -71h-69q0 70 50 115q51 45 119 45q68 -1 145 -57t119 -56t72 29t31 72h70q2 -70 -48 -115q-51 -45 -117 -45z" />
    <glyph glyph-name="odieresis" unicode="&#xf6;" horiz-adv-x="1685" 
d="M842 1386q-284 0 -474 -186t-190 -481t190 -483t473 -188t475 188t192 482t-192 481q-191 187 -474 187zM98 717q0 321 216 533t528 212t529 -212q216 -212 216 -534t-216 -533q-216 -212 -528 -212t-529 212q-216 212 -216 534zM1141 1636q-1 -31 -21 -52t-52 -21
q-32 -1 -54 21t-21 52q0 30 22 53q23 21 53 21t52 -22t21 -52zM617 1563q-32 -1 -52 21t-20 52t20 53q20 21 52 21t54 -22q21 -22 21 -52q0 -31 -22 -52t-53 -21z" />
    <glyph glyph-name="divide" unicode="&#xf7;" 
d="M697 211q-30 -1 -50 21t-20 52t21 50q22 20 52 20t50 -21t20 -51t-21 -51q-22 -20 -52 -20zM225 764h957v-72h-957v72zM770 1182q0 -30 -22 -50t-51 -20q-30 0 -50 22t-20 52t21 49q22 20 52 20t50 -21q20 -22 20 -52z" />
    <glyph glyph-name="oslash" unicode="&#xf8;" horiz-adv-x="1685" 
d="M842 47q282 1 474 189t191 481q0 324 -227 514l-815 -1073q164 -111 377 -111zM179 704q0 -310 231 -505l815 1075q-168 113 -383 112q-283 0 -473 -186t-190 -496zM842 -29q-233 0 -422 125l-78 -102l-55 43l78 102q-266 217 -267 578q0 321 216 533t528 212
q238 0 428 -129l84 109l55 -41l-84 -111q123 -102 193 -250t69 -323q0 -322 -216 -534t-529 -212z" />
    <glyph glyph-name="ugrave" unicode="&#xf9;" horiz-adv-x="1454" 
d="M1214 1434h80v-861q0 -295 -144 -449t-423 -155q-279 0 -422 155t-143 449v861h78v-869q0 -256 122 -388t365 -132q487 0 487 520v869zM848 1522l-418 215l35 61l414 -223z" />
    <glyph glyph-name="uacute" unicode="&#xfa;" horiz-adv-x="1454" 
d="M1214 1434h80v-861q0 -295 -144 -449t-423 -155q-279 0 -422 155t-143 449v861h78v-869q0 -256 122 -388t365 -132q487 0 487 520v869zM975 1798l35 -61l-418 -215l-31 53z" />
    <glyph glyph-name="ucircumflex" unicode="&#xfb;" horiz-adv-x="1454" 
d="M1214 1434h80v-861q0 -295 -144 -449t-423 -155q-279 0 -422 155t-143 449v861h78v-869q0 -256 122 -388t365 -132q487 0 487 520v869zM420 1583l311 264l311 -264l-47 -47l-264 225l-264 -225z" />
    <glyph glyph-name="udieresis" unicode="&#xfc;" horiz-adv-x="1454" 
d="M1214 1434h80v-861q0 -295 -144 -449t-423 -155q-279 0 -422 155t-143 449v861h78v-869q0 -256 122 -388t365 -132q487 0 487 520v869zM953 1563q-31 -1 -53 21t-22 52t22 53q22 21 52 21t53 -22q21 -22 21 -52q0 -31 -20 -52t-53 -21zM503 1563q-32 -1 -52 21
q-21 22 -21 52t20 53q20 21 53 21q31 0 53 -22t22 -52q0 -31 -22 -52t-53 -21z" />
    <glyph glyph-name="yacute" unicode="&#xfd;" horiz-adv-x="1273" 
d="M676 0h-78v739l-559 695h94l410 -510q20 -23 78 -99l16 -20h2l16 18q16 19 41 53t37 48l408 510h94l-559 -695v-739zM879 1798l34 -61l-417 -215l-31 53z" />
    <glyph glyph-name="thorn" unicode="&#xfe;" horiz-adv-x="1198" 
d="M285 362h362q164 0 266 100q103 100 103 262q0 161 -102 261t-267 98h-362v-721zM285 1159h362q199 0 324 -122q125 -123 125 -315t-125 -314t-324 -121h-362v-287h-78v1434h78v-275z" />
    <glyph glyph-name="ydieresis" unicode="&#xff;" horiz-adv-x="1273" 
d="M676 0h-78v739l-559 695h94l410 -510q20 -23 78 -99l16 -20h2l16 18q16 19 41 53t37 48l408 510h94l-559 -695v-739zM857 1563q-31 -1 -53 21t-22 52t22 53q22 21 54 21t51 -22q21 -22 21 -52q0 -31 -20 -52t-53 -21zM407 1563q-32 0 -53 21q-20 22 -20 52t21 53
q22 21 53 21q30 0 52 -22t22 -52q0 -31 -22 -52q-21 -21 -53 -21z" />
    <glyph glyph-name="Amacron" unicode="&#x100;" horiz-adv-x="1472" 
d="M375 522h723l-295 662q-13 30 -29 70t-26 63l-11 22h-2l-10 -22q-11 -23 -27 -64t-28 -69zM1331 0l-201 451h-788l-201 -451h-84l645 1434h68l645 -1434h-84zM1065 1673v-65h-637v65h637z" />
    <glyph glyph-name="amacron" unicode="&#x101;" horiz-adv-x="1472" 
d="M375 522h723l-295 662q-13 30 -29 70t-26 63l-11 22h-2l-10 -22q-11 -23 -27 -64t-28 -69zM1331 0l-201 451h-788l-201 -451h-84l645 1434h68l645 -1434h-84zM1065 1673v-65h-637v65h637z" />
    <glyph glyph-name="Abreve" unicode="&#x102;" horiz-adv-x="1472" 
d="M375 522h723l-295 662q-13 30 -29 70t-26 63l-11 22h-2l-10 -22q-11 -23 -27 -64t-28 -69zM1331 0l-201 451h-788l-201 -451h-84l645 1434h68l645 -1434h-84zM743 1528q-96 0 -168 61t-88 156h60q16 -70 71 -117t126 -47q72 0 128 48t72 116h57q-16 -93 -89 -155
t-169 -62z" />
    <glyph glyph-name="abreve" unicode="&#x103;" horiz-adv-x="1472" 
d="M375 522h723l-295 662q-13 30 -29 70t-26 63l-11 22h-2l-10 -22q-11 -23 -27 -64t-28 -69zM1331 0l-201 451h-788l-201 -451h-84l645 1434h68l645 -1434h-84zM743 1528q-96 0 -168 61t-88 156h60q16 -70 71 -117t126 -47q72 0 128 48t72 116h57q-16 -93 -89 -155
t-169 -62z" />
    <glyph glyph-name="Aogonek" unicode="&#x104;" horiz-adv-x="1472" 
d="M375 522h723l-295 662q-13 30 -29 70t-26 63l-11 22h-2l-10 -22q-11 -23 -27 -64t-28 -69zM1018 -228q0 116 86 193q86 76 205 86l-179 400h-788l-201 -451h-84l645 1434h68l645 -1434h-29q-125 0 -215 -57t-90 -181q-1 -82 55 -137t147 -55t141 42t81 114l60 -21
q-86 -193 -285 -192q-118 -1 -190 71t-72 188z" />
    <glyph glyph-name="aogonek" unicode="&#x105;" horiz-adv-x="1472" 
d="M375 522h723l-295 662q-13 30 -29 70t-26 63l-11 22h-2l-10 -22q-11 -23 -27 -64t-28 -69zM1018 -228q0 116 86 193q86 76 205 86l-179 400h-788l-201 -451h-84l645 1434h68l645 -1434h-29q-125 0 -215 -57t-90 -181q-1 -82 55 -137t147 -55t141 42t81 114l60 -21
q-86 -193 -285 -192q-118 -1 -190 71t-72 188z" />
    <glyph glyph-name="Cacute" unicode="&#x106;" horiz-adv-x="1564" 
d="M842 -29q-311 0 -528 212q-216 212 -216 534q0 321 216 533t528 212q209 0 381 -100t270 -272l-80 -21q-83 147 -235 233t-336 84q-283 0 -473 -186q-191 -186 -191 -481t190 -482t474 -188q194 0 352 96t242 263l77 -23q-92 -193 -270 -303t-401 -111zM1071 1798l35 -61
l-418 -215l-31 53z" />
    <glyph glyph-name="cacute" unicode="&#x107;" horiz-adv-x="1564" 
d="M842 -29q-311 0 -528 212q-216 212 -216 534q0 321 216 533t528 212q209 0 381 -100t270 -272l-80 -21q-83 147 -235 233t-336 84q-283 0 -473 -186q-191 -186 -191 -481t190 -482t474 -188q194 0 352 96t242 263l77 -23q-92 -193 -270 -303t-401 -111zM1071 1798l35 -61
l-418 -215l-31 53z" />
    <glyph glyph-name="Cdotaccent" unicode="&#x10a;" horiz-adv-x="1564" 
d="M842 -29q-311 0 -528 212q-216 212 -216 534q0 321 216 533t528 212q209 0 381 -100t270 -272l-80 -21q-83 147 -235 233t-336 84q-283 0 -473 -186q-191 -186 -191 -481t190 -482t474 -188q194 0 352 96t242 263l77 -23q-92 -193 -270 -303t-401 -111zM829 1563
q-31 -1 -53 21t-20 52q0 30 21 53q23 21 53 21t51 -21q20 -22 20 -53q-1 -31 -21 -52t-51 -21z" />
    <glyph glyph-name="cdotaccent" unicode="&#x10b;" horiz-adv-x="1564" 
d="M842 -29q-311 0 -528 212q-216 212 -216 534q0 321 216 533t528 212q209 0 381 -100t270 -272l-80 -21q-83 147 -235 233t-336 84q-283 0 -473 -186q-191 -186 -191 -481t190 -482t474 -188q194 0 352 96t242 263l77 -23q-92 -193 -270 -303t-401 -111zM829 1563
q-31 -1 -53 21t-20 52q0 30 21 53q23 21 53 21t51 -21q20 -22 20 -53q-1 -31 -21 -52t-51 -21z" />
    <glyph glyph-name="Ccaron" unicode="&#x10c;" horiz-adv-x="1564" 
d="M842 -29q-311 0 -528 212q-216 212 -216 534q0 321 216 533t528 212q209 0 381 -100t270 -272l-80 -21q-83 147 -235 233t-336 84q-283 0 -473 -186q-191 -186 -191 -481t190 -482t474 -188q194 0 352 96t242 263l77 -23q-92 -193 -270 -303t-401 -111zM518 1759l47 47
l264 -225l265 225l47 -47l-312 -264z" />
    <glyph glyph-name="ccaron" unicode="&#x10d;" horiz-adv-x="1564" 
d="M842 -29q-311 0 -528 212q-216 212 -216 534q0 321 216 533t528 212q209 0 381 -100t270 -272l-80 -21q-83 147 -235 233t-336 84q-283 0 -473 -186q-191 -186 -191 -481t190 -482t474 -188q194 0 352 96t242 263l77 -23q-92 -193 -270 -303t-401 -111zM518 1759l47 47
l264 -225l265 225l47 -47l-312 -264z" />
    <glyph glyph-name="Dcaron" unicode="&#x10e;" horiz-adv-x="1638" 
d="M285 76h532q268 0 456 173q187 173 187 462t-190 468t-471 179h-514v-1282zM207 1434h592q313 0 527 -204t214 -517t-210 -513t-513 -200h-610v1434zM467 1759l47 47l264 -225l264 225l48 -47l-312 -264z" />
    <glyph glyph-name="dcaron" unicode="&#x10f;" horiz-adv-x="1638" 
d="M285 76h532q268 0 456 173q187 173 187 462t-190 468t-471 179h-514v-1282zM207 1434h592q313 0 527 -204t214 -517t-210 -513t-513 -200h-610v1434zM467 1759l47 47l264 -225l264 225l48 -47l-312 -264z" />
    <glyph glyph-name="Dcroat" unicode="&#x110;" horiz-adv-x="1640" 
d="M285 76h532q268 0 456 173q187 173 187 462t-190 468t-471 179h-514v-588h438v-74h-438v-620zM207 1434h592q313 0 527 -204t214 -517t-210 -513t-513 -200h-610v696h-109v74h109v664z" />
    <glyph glyph-name="dcroat" unicode="&#x111;" horiz-adv-x="1640" 
d="M285 76h532q268 0 456 173q187 173 187 462t-190 468t-471 179h-514v-588h438v-74h-438v-620zM207 1434h592q313 0 527 -204t214 -517t-210 -513t-513 -200h-610v696h-109v74h109v664z" />
    <glyph glyph-name="Emacron" unicode="&#x112;" horiz-adv-x="1253" 
d="M285 76h848v-76h-926v1434h913v-76h-835v-547h678v-74h-678v-661zM991 1673v-65h-637v65h637z" />
    <glyph glyph-name="emacron" unicode="&#x113;" horiz-adv-x="1253" 
d="M285 76h848v-76h-926v1434h913v-76h-835v-547h678v-74h-678v-661zM981 1673v-65h-637v65h637z" />
    <glyph glyph-name="Edotaccent" unicode="&#x116;" horiz-adv-x="1253" 
d="M285 76h848v-76h-926v1434h913v-76h-835v-547h678v-74h-678v-661zM664 1563q-31 -1 -53 21q-21 22 -21 52t21 53q22 21 53 21t51 -22t20 -52q0 -31 -20 -52t-51 -21z" />
    <glyph glyph-name="edotaccent" unicode="&#x117;" horiz-adv-x="1253" 
d="M285 76h848v-76h-926v1434h913v-76h-835v-547h678v-74h-678v-661zM664 1563q-31 -1 -53 21q-21 22 -21 52t21 53q22 21 53 21t51 -22t20 -52q0 -31 -20 -52t-51 -21z" />
    <glyph glyph-name="Eogonek" unicode="&#x118;" horiz-adv-x="1253" 
d="M608 -238q0 156 131 238h-532v1434h913v-76h-835v-547h678v-74h-678v-661h848v-76h-156q-125 0 -215 -57t-90 -181q0 -82 55 -137t146 -55t142 42q50 42 81 114l59 -21q-86 -193 -285 -192q-118 -1 -190 71t-72 178z" />
    <glyph glyph-name="eogonek" unicode="&#x119;" horiz-adv-x="1253" 
d="M657 -238q0 156 131 238h-581v1434h913v-76h-835v-547h678v-74h-678v-661h848v-76h-107q-125 0 -215 -57t-90 -181q0 -82 55 -137q54 -55 146 -55t142 42t81 114l59 -21q-86 -193 -284 -192q-117 -1 -190 71t-73 178z" />
    <glyph glyph-name="Ecaron" unicode="&#x11a;" horiz-adv-x="1253" 
d="M285 76h848v-76h-926v1434h913v-76h-835v-547h678v-74h-678v-661zM975 1759l-311 -264l-312 264l47 47l265 -225l264 225z" />
    <glyph glyph-name="ecaron" unicode="&#x11b;" horiz-adv-x="1253" 
d="M285 76h848v-76h-926v1434h913v-76h-835v-547h678v-74h-678v-661zM965 1759l-312 -264l-311 264l47 47l264 -225l265 225z" />
    <glyph glyph-name="Gcircumflex" unicode="&#x11c;" horiz-adv-x="1632" 
d="M1438 262h-2q-59 -83 -160 -155q-191 -136 -434 -136q-311 0 -528 212q-216 212 -216 534q0 321 216 533t528 212q223 -8 390 -106t261 -266l-80 -21q-83 147 -235 233t-336 84q-283 0 -473 -186q-191 -186 -191 -481t190 -483t474 -189q209 -1 375 103t219 219v268h-467
v70h540v-711h-73v142l2 83v41zM504 1583l311 264l311 -264l-47 -47l-264 225l-264 -225z" />
    <glyph glyph-name="gcircumflex" unicode="&#x11d;" horiz-adv-x="1632" 
d="M1438 262h-2q-59 -83 -160 -155q-191 -136 -434 -136q-311 0 -528 212q-216 212 -216 534q0 321 216 533t528 212q223 -8 390 -106t261 -266l-80 -21q-83 147 -235 233t-336 84q-283 0 -473 -186q-191 -186 -191 -481t190 -483t474 -189q209 -1 375 103t219 219v268h-467
v70h540v-711h-73v142l2 83v41zM504 1583l311 264l311 -264l-47 -47l-264 225l-264 -225z" />
    <glyph glyph-name="Gbreve" unicode="&#x11e;" horiz-adv-x="1632" 
d="M1438 262h-2q-59 -83 -160 -155q-191 -136 -434 -136q-311 0 -528 212q-216 212 -216 534q0 321 216 533t528 212q223 -8 390 -106t261 -266l-80 -21q-83 147 -235 233t-336 84q-283 0 -473 -186q-191 -186 -191 -481t190 -483t474 -189q209 -1 375 103t219 219v268h-467
v70h540v-711h-73v142l2 83v41zM824 1581q71 0 127 48t73 116h57q-16 -93 -89 -155t-169 -62t-168 62t-88 155h60q16 -70 71 -117t126 -47z" />
    <glyph glyph-name="gbreve" unicode="&#x11f;" horiz-adv-x="1632" 
d="M1438 262h-2q-59 -83 -160 -155q-191 -136 -434 -136q-311 0 -528 212q-216 212 -216 534q0 321 216 533t528 212q223 -8 390 -106t261 -266l-80 -21q-83 147 -235 233t-336 84q-283 0 -473 -186q-191 -186 -191 -481t190 -483t474 -189q209 -1 375 103t219 219v268h-467
v70h540v-711h-73v142l2 83v41zM824 1581q71 0 127 48t73 116h57q-16 -93 -89 -155t-169 -62t-168 62t-88 155h60q16 -70 71 -117t126 -47z" />
    <glyph glyph-name="Gdotaccent" unicode="&#x120;" horiz-adv-x="1632" 
d="M1438 262h-2q-59 -83 -160 -155q-191 -136 -434 -136q-311 0 -528 212q-216 212 -216 534q0 321 216 533t528 212q223 -8 390 -106t261 -266l-80 -21q-83 147 -235 233t-336 84q-283 0 -473 -186q-191 -186 -191 -481t190 -483t474 -189q209 -1 375 103t219 219v268h-467
v70h540v-711h-73v142l2 83v41zM817 1563q-31 -1 -53 21t-21 52q0 30 22 53q23 21 53 21t50 -22t20 -52q0 -31 -20 -52t-51 -21z" />
    <glyph glyph-name="gdotaccent" unicode="&#x121;" horiz-adv-x="1632" 
d="M1438 262h-2q-59 -83 -160 -155q-191 -136 -434 -136q-311 0 -528 212q-216 212 -216 534q0 321 216 533t528 212q223 -8 390 -106t261 -266l-80 -21q-83 147 -235 233t-336 84q-283 0 -473 -186q-191 -186 -191 -481t190 -483t474 -189q209 -1 375 103t219 219v268h-467
v70h540v-711h-73v142l2 83v41zM817 1563q-31 -1 -53 21t-21 52q0 30 22 53q23 21 53 21t50 -22t20 -52q0 -31 -20 -52t-51 -21z" />
    <glyph glyph-name="Gcommaaccent" unicode="&#x122;" horiz-adv-x="1632" 
d="M822 -82q32 0 54 -27t21 -65q0 -154 -123 -295h-47q96 106 96 233l15 11h-15q-29 -4 -53 16t-22 54q0 34 21 54q21 19 53 19zM1438 262h-2q-59 -83 -160 -155q-191 -136 -434 -136q-311 0 -528 212q-216 212 -216 534q0 321 216 533t528 212q223 -8 390 -106t261 -266
l-80 -21q-83 147 -235 233t-336 84q-283 0 -473 -186q-191 -186 -191 -481t190 -483t474 -189q209 -1 375 103t219 219v268h-467v70h540v-711h-73v142l2 83v41z" />
    <glyph glyph-name="gcommaaccent" unicode="&#x123;" horiz-adv-x="1632" 
d="M822 -82q32 0 54 -27t21 -65q0 -154 -123 -295h-47q96 106 96 233l15 11h-15q-29 -4 -53 16t-22 54q0 34 21 54q21 19 53 19zM1438 262h-2q-59 -83 -160 -155q-191 -136 -434 -136q-311 0 -528 212q-216 212 -216 534q0 321 216 533t528 212q223 -8 390 -106t261 -266
l-80 -21q-83 147 -235 233t-336 84q-283 0 -473 -186q-191 -186 -191 -481t190 -483t474 -189q209 -1 375 103t219 219v268h-467v70h540v-711h-73v142l2 83v41z" />
    <glyph glyph-name="Hcircumflex" unicode="&#x124;" horiz-adv-x="1478" 
d="M1192 1434h80v-1434h-80v717h-907v-717h-78v1434h78v-641h907v641zM737 1761l-264 -225l-47 47l311 264l312 -264l-48 -47z" />
    <glyph glyph-name="hcircumflex" unicode="&#x125;" horiz-adv-x="1478" 
d="M1192 1434h80v-1434h-80v717h-907v-717h-78v1434h78v-641h907v641zM737 1761l-264 -225l-47 47l311 264l312 -264l-48 -47z" />
    <glyph glyph-name="Hbar" unicode="&#x126;" horiz-adv-x="1478" 
d="M1192 793v397h-907v-397h907zM1397 1264v-74h-125v-1190h-80v717h-907v-717h-78v1190h-125v74h125v170h78v-170h907v170h80v-170h125z" />
    <glyph glyph-name="hbar" unicode="&#x127;" horiz-adv-x="1478" 
d="M1192 793v397h-907v-397h907zM1397 1264v-74h-125v-1190h-80v717h-907v-717h-78v1190h-125v74h125v170h78v-170h907v170h80v-170h125z" />
    <glyph glyph-name="Imacron" unicode="&#x12a;" horiz-adv-x="491" 
d="M285 0h-78v1434h78v-1434zM-63 1673h636v-65h-636v65z" />
    <glyph glyph-name="imacron" unicode="&#x12b;" horiz-adv-x="491" 
d="M285 0h-78v1434h78v-1434zM-61 1673h636v-65h-636v65z" />
    <glyph glyph-name="Iogonek" unicode="&#x12e;" horiz-adv-x="491" 
d="M207 1434h78v-1434h-21q-125 0 -215 -57t-90 -181q0 -82 55 -137q54 -55 146 -55t142 42t81 114l59 -21q-86 -193 -284 -192q-117 -1 -190 71q-72 72 -72 192t94 196q94 77 217 79v1383z" />
    <glyph glyph-name="iogonek" unicode="&#x12f;" horiz-adv-x="491" 
d="M207 1434h78v-1434h-21q-125 0 -215 -57t-90 -181q0 -82 55 -137q54 -55 146 -55t142 42t81 114l59 -21q-86 -193 -284 -192q-117 -1 -190 71q-72 72 -72 192t94 196q94 77 217 79v1383z" />
    <glyph glyph-name="Idotaccent" unicode="&#x130;" horiz-adv-x="491" 
d="M285 0h-78v1434h78v-1434zM246 1563q-30 -1 -52 21t-22 52t22 53q22 21 52 21t51 -22q20 -22 20 -52q0 -31 -20 -52t-51 -21z" />
    <glyph glyph-name="dotlessi" unicode="&#x131;" horiz-adv-x="491" 
d="M285 0h-78v1434h78v-1434z" />
    <glyph glyph-name="IJ" unicode="&#x132;" horiz-adv-x="1789" 
d="M1546 1434h80v-861q0 -285 -148 -445t-429 -159q-199 1 -345 103t-200 270l80 20q45 -145 173 -231t292 -86q245 0 371 137t126 383v869zM285 0h-78v1434h78v-1434z" />
    <glyph glyph-name="ij" unicode="&#x133;" horiz-adv-x="1789" 
d="M1546 1434h80v-861q0 -285 -148 -445t-429 -159q-199 1 -345 103t-200 270l80 20q45 -145 173 -231t292 -86q245 0 371 137t126 383v869zM285 0h-78v1434h78v-1434z" />
    <glyph glyph-name="Jcircumflex" unicode="&#x134;" horiz-adv-x="1316" 
d="M1075 1434h80v-861q0 -285 -148 -445t-429 -159q-200 1 -346 103t-199 270l80 20q45 -145 173 -231t292 -86q244 0 370 137t127 383v869zM801 1583l311 264l311 -264l-47 -47l-264 225l-264 -225z" />
    <glyph glyph-name="jcircumflex" unicode="&#x135;" horiz-adv-x="1316" 
d="M1075 1434h80v-861q0 -285 -148 -445t-429 -159q-200 1 -346 103t-199 270l80 20q45 -145 173 -231t292 -86q244 0 370 137t127 383v869zM801 1583l311 264l311 -264l-47 -47l-264 225l-264 -225z" />
    <glyph glyph-name="Kcommaaccent" unicode="&#x136;" horiz-adv-x="1366" 
d="M598 -155q0 33 22 53t54 20t52 -27q22 -27 22 -65q0 -154 -123 -295h-47q96 106 96 233l14 11h-14q-28 -4 -52 16t-24 54zM283 610h2l45 45q45 45 114 116q70 71 107 108l555 555h98l-575 -576l639 -858h-94l-601 803l-288 -289v-514h-78v1434h78v-459l-2 -321v-44z" />
    <glyph glyph-name="kcommaaccent" unicode="&#x137;" horiz-adv-x="1366" 
d="M704 -82q32 0 54 -27t20 -65q0 -154 -123 -295h-47q96 106 97 233l14 11h-14q-29 -4 -53 16t-24 54t22 54q22 19 54 19zM283 610h2l45 45q45 45 114 116q70 71 107 108l555 555h98l-575 -576l639 -858h-94l-601 803l-288 -289v-514h-78v1434h78v-459l-2 -321v-44z" />
    <glyph glyph-name="Lacute" unicode="&#x139;" horiz-adv-x="1140" 
d="M285 76h815v-76h-893v1434h78v-1358zM481 1798l35 -61l-418 -215l-30 53z" />
    <glyph glyph-name="lacute" unicode="&#x13a;" horiz-adv-x="1140" 
d="M285 76h815v-76h-893v1434h78v-1358zM481 1798l35 -61l-418 -215l-30 53z" />
    <glyph glyph-name="Lcommaaccent" unicode="&#x13b;" horiz-adv-x="1140" 
d="M553 -155q0 34 21 54q22 19 54 19t54 -27t20 -65q0 -154 -122 -295h-48q96 106 97 233l14 11h-14q-29 -4 -53 16t-23 54zM285 76h815v-76h-893v1434h78v-1358z" />
    <glyph glyph-name="lcommaaccent" unicode="&#x13c;" horiz-adv-x="1140" 
d="M658 -82q32 0 54 -27t21 -65q0 -154 -123 -295h-47q96 106 96 233l15 11h-15q-29 -4 -53 16t-22 54q0 34 21 54q21 19 53 19zM285 76h815v-76h-893v1434h78v-1358z" />
    <glyph glyph-name="Lcaron" unicode="&#x13d;" horiz-adv-x="1140" 
d="M285 76h815v-76h-893v1434h78v-1358zM571 1390q0 34 23 53q22 19 54 19t54 -26t21 -66q0 -154 -123 -295h-47q94 109 94 234l17 10h-17q-29 -4 -53 16q-24 21 -23 55z" />
    <glyph glyph-name="lcaron" unicode="&#x13e;" horiz-adv-x="1140" 
d="M285 76h815v-76h-893v1434h78v-1358zM473 1410q0 34 22 53q23 19 55 19t52 -25q20 -26 21 -66q0 -160 -123 -295h-47q96 106 96 233l14 10h-14q-29 -3 -53 17t-23 54z" />
    <glyph glyph-name="Ldot" unicode="&#x13f;" horiz-adv-x="1140" 
d="M734 702q-32 0 -54 20t-21 52q0 30 22 52q23 22 53 22t50 -20t20 -53t-18 -53q-20 -20 -52 -20zM285 76h815v-76h-893v1434h78v-1358z" />
    <glyph glyph-name="ldot" unicode="&#x140;" horiz-adv-x="1140" 
d="M734 702q-32 0 -54 20t-21 52q0 30 22 52q23 22 53 22t50 -20t20 -53t-18 -53q-20 -20 -52 -20zM285 76h815v-76h-893v1434h78v-1358z" />
    <glyph glyph-name="Lslash" unicode="&#x141;" horiz-adv-x="1140" 
d="M285 76h815v-76h-893v1434h78v-777l608 308v-78l-608 -307v-504z" />
    <glyph glyph-name="lslash" unicode="&#x142;" horiz-adv-x="1140" 
d="M285 76h815v-76h-893v1434h78v-777l608 308v-78l-608 -307v-504z" />
    <glyph glyph-name="Nacute" unicode="&#x143;" horiz-adv-x="1531" 
d="M1247 469v965h78v-1434h-74l-807 1087q-84 114 -149 207l-12 19h-2l2 -43l2 -299v-971h-78v1434h74l802 -1080q127 -170 154 -204l14 -21h2v43q-6 135 -6 297zM1012 1798l35 -61l-418 -215l-31 53z" />
    <glyph glyph-name="nacute" unicode="&#x144;" horiz-adv-x="1531" 
d="M1247 469v965h78v-1434h-74l-807 1087q-84 114 -149 207l-12 19h-2l2 -43l2 -299v-971h-78v1434h74l802 -1080q127 -170 154 -204l14 -21h2v43q-6 135 -6 297zM1012 1798l35 -61l-418 -215l-31 53z" />
    <glyph glyph-name="Ncommaaccent" unicode="&#x145;" horiz-adv-x="1531" 
d="M700 -155q0 33 22 53t54 20t52 -27q22 -27 22 -65q0 -154 -123 -295h-47q96 106 96 233l15 11h-15q-28 -4 -52 16t-24 54zM1247 469v965h78v-1434h-74l-807 1087q-84 114 -149 207l-12 19h-2l2 -43l2 -299v-971h-78v1434h74l802 -1080q127 -170 154 -204l14 -21h2v43
q-6 135 -6 297z" />
    <glyph glyph-name="ncommaaccent" unicode="&#x146;" horiz-adv-x="1531" 
d="M700 -155q0 33 22 53t54 20t52 -27q22 -27 22 -65q0 -154 -123 -295h-47q96 106 96 233l15 11h-15q-28 -4 -52 16t-24 54zM1247 469v965h78v-1434h-74l-807 1087q-84 114 -149 207l-12 19h-2l2 -43l2 -299v-971h-78v1434h74l802 -1080q127 -170 154 -204l14 -21h2v43
q-6 135 -6 297z" />
    <glyph glyph-name="Ncaron" unicode="&#x147;" horiz-adv-x="1531" 
d="M1247 469v965h78v-1434h-74l-807 1087q-84 114 -149 207l-12 19h-2l2 -43l2 -299v-971h-78v1434h74l802 -1080q127 -170 154 -204l14 -21h2v43q-6 135 -6 297zM459 1759l47 47l264 -225l264 225l47 -47l-311 -264z" />
    <glyph glyph-name="ncaron" unicode="&#x148;" horiz-adv-x="1531" 
d="M1247 469v965h78v-1434h-74l-807 1087q-84 114 -149 207l-12 19h-2l2 -43l2 -299v-971h-78v1434h74l802 -1080q127 -170 154 -204l14 -21h2v43q-6 135 -6 297zM459 1759l47 47l264 -225l264 225l47 -47l-311 -264z" />
    <glyph glyph-name="Eng" unicode="&#x14a;" horiz-adv-x="1531" 
d="M1247 469v965h78v-1434q0 -164 -91 -268t-230 -105h-84v72h81q111 0 181 84t69 217l-807 1087q-84 114 -149 207l-12 19h-2l2 -43l2 -299v-971h-78v1434h74l802 -1080q127 -170 154 -204l14 -21h2v43q-6 135 -6 297z" />
    <glyph glyph-name="eng" unicode="&#x14b;" horiz-adv-x="1531" 
d="M1247 469v965h78v-1434q0 -164 -91 -268t-230 -105h-84v72h81q111 0 181 84t69 217l-807 1087q-84 114 -149 207l-12 19h-2l2 -43l2 -299v-971h-78v1434h74l802 -1080q127 -170 154 -204l14 -21h2v43q-6 135 -6 297z" />
    <glyph glyph-name="Omacron" unicode="&#x14c;" horiz-adv-x="1685" 
d="M842 1386q-284 0 -474 -186t-190 -481t190 -483t473 -188t475 188t192 482t-192 481q-191 187 -474 187zM98 717q0 321 216 533t528 212t529 -212q216 -212 216 -534t-216 -533q-216 -212 -528 -212t-529 212q-216 212 -216 534zM543 1673h637v-65h-637v65z" />
    <glyph glyph-name="omacron" unicode="&#x14d;" horiz-adv-x="1685" 
d="M842 1386q-284 0 -474 -186t-190 -481t190 -483t473 -188t475 188t192 482t-192 481q-191 187 -474 187zM98 717q0 321 216 533t528 212t529 -212q216 -212 216 -534t-216 -533q-216 -212 -528 -212t-529 212q-216 212 -216 534zM539 1673h637v-65h-637v65z" />
    <glyph glyph-name="Ohungarumlaut" unicode="&#x150;" horiz-adv-x="1685" 
d="M842 1386q-284 0 -474 -186t-190 -481t190 -483t473 -188t475 188t192 482t-192 481q-191 187 -474 187zM98 717q0 321 216 533t528 212t529 -212q216 -212 216 -534t-216 -533q-216 -212 -528 -212t-529 212q-216 212 -216 534zM1376 1798l35 -61l-418 -215l-30 53z
M946 1798l35 -61l-418 -215l-31 53z" />
    <glyph glyph-name="ohungarumlaut" unicode="&#x151;" horiz-adv-x="1685" 
d="M842 1386q-284 0 -474 -186t-190 -481t190 -483t473 -188t475 188t192 482t-192 481q-191 187 -474 187zM98 717q0 321 216 533t528 212t529 -212q216 -212 216 -534t-216 -533q-216 -212 -528 -212t-529 212q-216 212 -216 534zM1372 1798l35 -61l-418 -215l-31 53z
M942 1798l35 -61l-418 -215l-31 53z" />
    <glyph glyph-name="OE" unicode="&#x152;" horiz-adv-x="1986" 
d="M821 1366q-283 0 -463 -176t-180 -471t180 -473t463 -178q70 0 121 14v1272q-55 12 -121 12zM1020 76h848v-76h-924q-55 -8 -123 -8q-311 0 -517 202t-206 524t206 522q206 202 517 202q66 0 121 -8h913v-76h-835v-547h678v-74h-678v-661z" />
    <glyph glyph-name="oe" unicode="&#x153;" horiz-adv-x="1986" 
d="M821 1366q-283 0 -463 -176t-180 -471t180 -473t463 -178q70 0 121 14v1272q-55 12 -121 12zM1020 76h848v-76h-924q-55 -8 -123 -8q-311 0 -517 202t-206 524t206 522q206 202 517 202q66 0 121 -8h913v-76h-835v-547h678v-74h-678v-661z" />
    <glyph glyph-name="Racute" unicode="&#x154;" horiz-adv-x="1259" 
d="M285 639h307q210 0 324 97t114 267q0 171 -117 263t-321 92h-307v-719zM285 569v-569h-78v1434h385q242 0 380 -116t138 -319q0 -158 -84 -262t-240 -145l369 -592h-92l-354 578q-49 -8 -117 -9h-307zM860 1737l-418 -215l-30 53l413 223z" />
    <glyph glyph-name="racute" unicode="&#x155;" horiz-adv-x="1259" 
d="M285 639h307q210 0 324 97t114 267q0 171 -117 263t-321 92h-307v-719zM285 569v-569h-78v1434h385q242 0 380 -116t138 -319q0 -158 -84 -262t-240 -145l369 -592h-92l-354 578q-49 -8 -117 -9h-307zM934 1737l-418 -215l-31 53l414 223z" />
    <glyph glyph-name="Rcommaaccent" unicode="&#x156;" horiz-adv-x="1259" 
d="M532 -155q0 33 22 53t54 20t52 -27q22 -27 22 -65q0 -154 -123 -295h-47q96 106 96 233l15 11h-15q-28 -4 -52 16t-24 54zM285 639h307q210 0 324 97t114 267q0 171 -117 263t-321 92h-307v-719zM285 569v-569h-78v1434h385q242 0 380 -116t138 -319q0 -158 -84 -262
t-240 -145l369 -592h-92l-354 578q-49 -8 -117 -9h-307z" />
    <glyph glyph-name="rcommaaccent" unicode="&#x157;" horiz-adv-x="1259" 
d="M663 -82q31 0 53 -27t21 -65q0 -154 -123 -295h-47q96 106 97 233l14 11h-14q-29 -4 -53 16q-23 20 -23 54t21 54q22 19 54 19zM285 639h307q210 0 324 97t114 267q0 171 -117 263t-321 92h-307v-719zM285 569v-569h-78v1434h385q242 0 380 -116t138 -319
q0 -158 -84 -262t-240 -145l369 -592h-92l-354 578q-49 -8 -117 -9h-307z" />
    <glyph glyph-name="Rcaron" unicode="&#x158;" horiz-adv-x="1259" 
d="M285 639h307q210 0 324 97t114 267q0 171 -117 263t-321 92h-307v-719zM285 569v-569h-78v1434h385q242 0 380 -116t138 -319q0 -158 -84 -262t-240 -145l369 -592h-92l-354 578q-49 -8 -117 -9h-307zM895 1759l-311 -264l-312 264l47 47l265 -225l264 225z" />
    <glyph glyph-name="rcaron" unicode="&#x159;" horiz-adv-x="1259" 
d="M285 639h307q210 0 324 97t114 267q0 171 -117 263t-321 92h-307v-719zM285 569v-569h-78v1434h385q242 0 380 -116t138 -319q0 -158 -84 -262t-240 -145l369 -592h-92l-354 578q-49 -8 -117 -9h-307zM895 1759l-311 -264l-312 264l47 47l265 -225l264 225z" />
    <glyph glyph-name="Sacute" unicode="&#x15a;" horiz-adv-x="1200" 
d="M1110 375q0 -176 -140 -290t-366 -114t-362 119q-137 119 -154 299l76 21q10 -156 127 -260t311 -104t312 91q116 92 116 238q0 92 -40 143q-22 28 -42 52t-80 56q-60 33 -127 55t-237 68q-170 45 -252 99q-137 92 -137 251t136 261t337 102t335 -102q133 -103 162 -277
l-75 -20q-23 149 -137 237q-115 88 -285 88t-282 -78q-112 -79 -111 -218q0 -95 68 -149q38 -30 68 -49t93 -41q88 -31 197 -58q235 -59 319 -119q119 -89 145 -159q25 -70 25 -142zM842 1798l35 -61l-418 -215l-31 53z" />
    <glyph glyph-name="sacute" unicode="&#x15b;" horiz-adv-x="1200" 
d="M1110 375q0 -176 -140 -290t-366 -114t-362 119q-137 119 -154 299l76 21q10 -156 127 -260t311 -104t312 91q116 92 116 238q0 92 -40 143q-22 28 -42 52t-80 56q-60 33 -127 55t-237 68q-170 45 -252 99q-137 92 -137 251t136 261t337 102t335 -102q133 -103 162 -277
l-75 -20q-23 149 -137 237q-115 88 -285 88t-282 -78q-112 -79 -111 -218q0 -95 68 -149q38 -30 68 -49t93 -41q88 -31 197 -58q235 -59 319 -119q119 -89 145 -159q25 -70 25 -142zM842 1798l35 -61l-418 -215l-31 53z" />
    <glyph glyph-name="Scircumflex" unicode="&#x15c;" horiz-adv-x="1200" 
d="M1110 375q0 -176 -140 -290t-366 -114t-362 119q-137 119 -154 299l76 21q10 -156 127 -260t311 -104t312 91q116 92 116 238q0 92 -40 143q-22 28 -42 52t-80 56q-60 33 -127 55t-237 68q-170 45 -252 99q-137 92 -137 251t136 261t337 102t335 -102q133 -103 162 -277
l-75 -20q-23 149 -137 237q-115 88 -285 88t-282 -78q-112 -79 -111 -218q0 -95 68 -149q38 -30 68 -49t93 -41q88 -31 197 -58q235 -59 319 -119q119 -89 145 -159q25 -70 25 -142zM287 1583l311 264l311 -264l-47 -47l-264 225l-264 -225z" />
    <glyph glyph-name="scircumflex" unicode="&#x15d;" horiz-adv-x="1200" 
d="M1110 375q0 -176 -140 -290t-366 -114t-362 119q-137 119 -154 299l76 21q10 -156 127 -260t311 -104t312 91q116 92 116 238q0 92 -40 143q-22 28 -42 52t-80 56q-60 33 -127 55t-237 68q-170 45 -252 99q-137 92 -137 251t136 261t337 102t335 -102q133 -103 162 -277
l-75 -20q-23 149 -137 237q-115 88 -285 88t-282 -78q-112 -79 -111 -218q0 -95 68 -149q38 -30 68 -49t93 -41q88 -31 197 -58q235 -59 319 -119q119 -89 145 -159q25 -70 25 -142zM287 1583l311 264l311 -264l-47 -47l-264 225l-264 -225z" />
    <glyph glyph-name="Scedilla" unicode="&#x15e;" horiz-adv-x="1200" 
d="M1110 375q0 -168 -128 -281t-339 -123l-27 -67q94 2 150 -46t57 -128q0 -80 -56 -127t-146 -47h-97l25 57h72q63 0 102 32t39 84t-39 86t-102 33h-86l45 123q-215 8 -346 126q-130 118 -146 292l76 21q10 -156 127 -260t311 -104t312 91q116 92 116 238q0 92 -40 143
q-22 28 -42 52t-80 56q-60 33 -127 55t-237 68q-170 45 -252 99q-137 92 -137 251t136 261t337 102t335 -102q133 -103 162 -277l-75 -20q-23 149 -137 237q-115 88 -285 88t-282 -78q-112 -79 -111 -218q0 -95 68 -149q38 -30 68 -49t93 -41q88 -31 197 -58
q235 -59 319 -119q119 -89 145 -159q25 -70 25 -142z" />
    <glyph glyph-name="scedilla" unicode="&#x15f;" horiz-adv-x="1200" 
d="M1110 375q0 -168 -127 -280t-338 -122l-27 -69q94 2 150 -46t57 -128q0 -80 -56 -127t-146 -47h-97l25 57h72q63 0 102 32t39 84t-39 86t-102 33h-86l45 123q-215 8 -346 126t-148 292l76 21q10 -156 127 -260t311 -104t312 91q116 92 116 238q0 92 -40 143
q-22 28 -42 52t-80 56q-60 33 -127 55t-237 68q-170 45 -252 99q-137 92 -137 251t136 261t337 102t335 -102q133 -103 162 -277l-75 -20q-23 149 -137 237q-115 88 -285 88t-282 -78q-112 -79 -111 -218q0 -95 68 -149q38 -30 68 -49t93 -41q88 -31 197 -58
q235 -59 319 -119q119 -89 145 -159q25 -70 25 -142z" />
    <glyph glyph-name="Scaron" unicode="&#x160;" horiz-adv-x="1200" 
d="M1110 375q0 -176 -140 -290t-366 -114t-362 119q-137 119 -154 299l76 21q10 -156 127 -260t311 -104t312 91q116 92 116 238q0 92 -40 143q-22 28 -42 52t-80 56q-60 33 -127 55t-237 68q-170 45 -252 99q-137 92 -137 251t136 261t337 102t335 -102q133 -103 162 -277
l-75 -20q-23 149 -137 237q-115 88 -285 88t-282 -78q-112 -79 -111 -218q0 -95 68 -149q38 -30 68 -49t93 -41q88 -31 197 -58q235 -59 319 -119q119 -89 145 -159q25 -70 25 -142zM289 1759l47 47l264 -225l264 225l47 -47l-311 -264z" />
    <glyph glyph-name="scaron" unicode="&#x161;" horiz-adv-x="1200" 
d="M1110 375q0 -176 -140 -290t-366 -114t-362 119q-137 119 -154 299l76 21q10 -156 127 -260t311 -104t312 91q116 92 116 238q0 92 -40 143q-22 28 -42 52t-80 56q-60 33 -127 55t-237 68q-170 45 -252 99q-137 92 -137 251t136 261t337 102t335 -102q133 -103 162 -277
l-75 -20q-23 149 -137 237q-115 88 -285 88t-282 -78q-112 -79 -111 -218q0 -95 68 -149q38 -30 68 -49t93 -41q88 -31 197 -58q235 -59 319 -119q119 -89 145 -159q25 -70 25 -142zM289 1759l47 47l264 -225l264 225l47 -47l-311 -264z" />
    <glyph glyph-name="Tcedilla" unicode="&#x162;" horiz-adv-x="1198" 
d="M639 0h-10l-37 -96q94 2 150 -46t56 -128t-56 -127t-146 -47h-96l24 57h72q63 0 102 32t39 84t-39 86t-102 33h-86l55 152h-6v1358h-502v76h1084v-76h-502v-1358z" />
    <glyph glyph-name="tcedilla" unicode="&#x163;" horiz-adv-x="1198" 
d="M639 0h-10l-37 -96q94 2 150 -46t56 -128t-56 -127t-146 -47h-96l24 57h72q63 0 102 32t39 84t-39 86t-102 33h-86l55 152h-6v1358h-502v76h1084v-76h-502v-1358z" />
    <glyph glyph-name="Tcaron" unicode="&#x164;" horiz-adv-x="1198" 
d="M57 1434h1084v-76h-502v-1358h-80v1358h-502v76zM911 1759l-311 -264l-311 264l47 47l264 -225l264 225z" />
    <glyph glyph-name="tcaron" unicode="&#x165;" horiz-adv-x="1198" 
d="M57 1434h1084v-76h-502v-1358h-80v1358h-502v76zM911 1759l-311 -264l-311 264l47 47l264 -225l264 225z" />
    <glyph glyph-name="Tbar" unicode="&#x166;" horiz-adv-x="1198" 
d="M1141 1358h-502v-522h279v-68h-279v-768h-80v768h-278v68h278v522h-502v76h1084v-76z" />
    <glyph glyph-name="tbar" unicode="&#x167;" horiz-adv-x="1198" 
d="M1141 1358h-502v-522h279v-68h-279v-768h-80v768h-278v68h278v522h-502v76h1084v-76z" />
    <glyph glyph-name="Umacron" unicode="&#x16a;" horiz-adv-x="1454" 
d="M1214 1434h80v-861q0 -295 -144 -449t-423 -155q-279 0 -422 155t-143 449v861h78v-869q0 -256 122 -388t365 -132q487 0 487 520v869zM424 1673h637v-65h-637v65z" />
    <glyph glyph-name="umacron" unicode="&#x16b;" horiz-adv-x="1454" 
d="M1214 1434h80v-861q0 -295 -144 -449t-423 -155q-279 0 -422 155t-143 449v861h78v-869q0 -256 122 -388t365 -132q487 0 487 520v869zM424 1673h637v-65h-637v65z" />
    <glyph glyph-name="Ubreve" unicode="&#x16c;" horiz-adv-x="1454" 
d="M1214 1434h80v-861q0 -295 -144 -449t-423 -155q-279 0 -422 155t-143 449v861h78v-869q0 -256 122 -388t365 -132q487 0 487 520v869zM740 1581q71 0 127 48t73 116h57q-16 -93 -89 -155t-169 -62t-168 62t-88 155h60q16 -70 71 -117t126 -47z" />
    <glyph glyph-name="ubreve" unicode="&#x16d;" horiz-adv-x="1454" 
d="M1214 1434h80v-861q0 -295 -144 -449t-423 -155q-279 0 -422 155t-143 449v861h78v-869q0 -256 122 -388t365 -132q487 0 487 520v869zM740 1581q71 0 127 48t73 116h57q-16 -93 -89 -155t-169 -62t-168 62t-88 155h60q16 -70 71 -117t126 -47z" />
    <glyph glyph-name="Uring" unicode="&#x16e;" horiz-adv-x="1454" 
d="M1214 1434h80v-861q0 -295 -144 -449t-423 -155q-279 0 -422 155t-143 449v861h78v-869q0 -256 122 -388t365 -132q487 0 487 520v869zM733 1483q51 0 88 37t37 89t-37 87t-89 35t-88 -35t-36 -87t37 -89t88 -37zM915 1608q0 -76 -54 -130t-129 -53q-75 -1 -128 53
t-53 130t52 128t128 52t130 -52t54 -128z" />
    <glyph glyph-name="uring" unicode="&#x16f;" horiz-adv-x="1454" 
d="M1214 1434h80v-861q0 -295 -144 -449t-423 -155q-279 0 -422 155t-143 449v861h78v-869q0 -256 122 -388t365 -132q487 0 487 520v869zM733 1483q51 0 88 37t37 89t-37 87t-89 35t-88 -35t-36 -87t37 -89t88 -37zM915 1608q0 -76 -54 -130t-129 -53q-75 -1 -128 53
t-53 130t52 128t128 52t130 -52t54 -128z" />
    <glyph glyph-name="Uhungarumlaut" unicode="&#x170;" horiz-adv-x="1454" 
d="M1214 1434h80v-861q0 -295 -144 -449t-423 -155q-279 0 -422 155t-143 449v861h78v-869q0 -256 122 -388t365 -132q487 0 487 520v869zM1257 1798l35 -61l-418 -215l-30 53zM827 1798l35 -61l-418 -215l-30 53z" />
    <glyph glyph-name="uhungarumlaut" unicode="&#x171;" horiz-adv-x="1454" 
d="M1214 1434h80v-861q0 -295 -144 -449t-423 -155q-279 0 -422 155t-143 449v861h78v-869q0 -256 122 -388t365 -132q487 0 487 520v869zM1257 1798l35 -61l-418 -215l-30 53zM827 1798l35 -61l-418 -215l-30 53z" />
    <glyph glyph-name="Uogonek" unicode="&#x172;" horiz-adv-x="1454" 
d="M1214 1434h80v-861q0 -500 -401 -587q-190 -60 -236 -143q-20 -37 -20 -103t54 -118q53 -52 133 -52t140 42t87 95l47 -33q-31 -61 -105 -111t-174 -50q-100 1 -174 69t-74 174q0 135 142 213q-272 4 -412 158q-139 154 -139 446v861h78v-869q0 -256 122 -388t365 -132
q487 0 487 520v869z" />
    <glyph glyph-name="uogonek" unicode="&#x173;" horiz-adv-x="1454" 
d="M1214 1434h80v-861q0 -500 -401 -587q-190 -60 -236 -143q-20 -37 -20 -103t54 -118q53 -52 133 -52t140 42t87 95l47 -33q-31 -61 -105 -111t-174 -50q-100 1 -174 69t-74 174q0 135 142 213q-272 4 -412 158q-139 154 -139 446v861h78v-869q0 -256 122 -388t365 -132
q487 0 487 520v869z" />
    <glyph glyph-name="Wcircumflex" unicode="&#x174;" horiz-adv-x="1933" 
d="M1796 1434h78l-508 -1434h-61l-250 801q-72 219 -80 276l-6 23h-2l-6 -23q-11 -47 -80 -276l-252 -801h-60l-510 1434h80l396 -1115q18 -51 33 -101t22 -73l8 -22h2l6 22q7 40 49 174l283 893h57l285 -893q21 -68 49 -174l6 -22h2l6 22q8 23 24 73q15 50 32 101z
M645 1583l311 264l312 -264l-47 -47l-265 225l-264 -225z" />
    <glyph glyph-name="wcircumflex" unicode="&#x175;" horiz-adv-x="1933" 
d="M1796 1434h78l-508 -1434h-61l-250 801q-72 219 -80 276l-6 23h-2l-6 -23q-11 -47 -80 -276l-252 -801h-60l-510 1434h80l396 -1115q18 -51 33 -101t22 -73l8 -22h2l6 22q7 40 49 174l283 893h57l285 -893q21 -68 49 -174l6 -22h2l6 22q8 23 24 73q15 50 32 101z
M664 1583l311 264l311 -264l-47 -47l-264 225l-264 -225z" />
    <glyph glyph-name="Ycircumflex" unicode="&#x176;" horiz-adv-x="1273" 
d="M676 0h-78v739l-559 695h94l410 -510q20 -23 78 -99l16 -20h2l16 18q16 19 41 53t37 48l408 510h94l-559 -695v-739zM324 1583l311 264l311 -264l-47 -47l-264 225l-264 -225z" />
    <glyph glyph-name="ycircumflex" unicode="&#x177;" horiz-adv-x="1273" 
d="M676 0h-78v739l-559 695h94l410 -510q20 -23 78 -99l16 -20h2l16 18q16 19 41 53t37 48l408 510h94l-559 -695v-739zM324 1583l311 264l311 -264l-47 -47l-264 225l-264 -225z" />
    <glyph glyph-name="Ydieresis" unicode="&#x178;" horiz-adv-x="1273" 
d="M676 0h-78v739l-559 695h94l410 -510q20 -23 78 -99l16 -20h2l16 18q16 19 41 53t37 48l408 510h94l-559 -695v-739zM857 1563q-31 -1 -53 21t-22 52t22 53q22 21 54 21t51 -22q21 -22 21 -52q0 -31 -20 -52t-53 -21zM407 1563q-32 0 -53 21q-20 22 -20 52t21 53
q22 21 53 21q30 0 52 -22t22 -52q0 -31 -22 -52q-21 -21 -53 -21z" />
    <glyph glyph-name="Zacute" unicode="&#x179;" horiz-adv-x="1390" 
d="M143 1358v76h1125v-72l-955 -1182q-59 -73 -84 -94l-10 -12l2 -2h8l105 4h934v-76h-1145v72l958 1183q16 20 41 45l41 41l15 17l-2 2h-28l-81 -2h-924zM938 1798l35 -61l-418 -215l-31 53z" />
    <glyph glyph-name="zacute" unicode="&#x17a;" horiz-adv-x="1390" 
d="M143 1358v76h1125v-72l-955 -1182q-59 -73 -84 -94l-10 -12l2 -2h8l105 4h934v-76h-1145v72l958 1183q16 20 41 45l41 41l15 17l-2 2h-28l-81 -2h-924zM938 1798l35 -61l-418 -215l-31 53z" />
    <glyph glyph-name="Zdotaccent" unicode="&#x17b;" horiz-adv-x="1390" 
d="M143 1358v76h1125v-72l-955 -1182q-59 -73 -84 -94l-10 -12l2 -2h8l105 4h934v-76h-1145v72l958 1183q16 20 41 45l41 41l15 17l-2 2h-28l-81 -2h-924zM696 1563q-30 -1 -52 21t-22 52t22 53q22 21 52 21t52 -21q20 -22 20 -53t-20 -52t-52 -21z" />
    <glyph glyph-name="zdotaccent" unicode="&#x17c;" horiz-adv-x="1390" 
d="M143 1358v76h1125v-72l-955 -1182q-59 -73 -84 -94l-10 -12l2 -2h8l105 4h934v-76h-1145v72l958 1183q16 20 41 45l41 41l15 17l-2 2h-28l-81 -2h-924zM696 1563q-30 -1 -52 21t-22 52t22 53q22 21 52 21t52 -21q20 -22 20 -53t-20 -52t-52 -21z" />
    <glyph glyph-name="Zcaron" unicode="&#x17d;" horiz-adv-x="1390" 
d="M143 1358v76h1125v-72l-955 -1182q-59 -73 -84 -94l-10 -12l2 -2h8l105 4h934v-76h-1145v72l958 1183q16 20 41 45l41 41l15 17l-2 2h-28l-81 -2h-924zM385 1759l47 47l264 -225l265 225l47 -47l-312 -264z" />
    <glyph glyph-name="zcaron" unicode="&#x17e;" horiz-adv-x="1390" 
d="M143 1358v76h1125v-72l-955 -1182q-59 -73 -84 -94l-10 -12l2 -2h8l105 4h934v-76h-1145v72l958 1183q16 20 41 45l41 41l15 17l-2 2h-28l-81 -2h-924zM385 1759l47 47l264 -225l265 225l47 -47l-312 -264z" />
    <glyph glyph-name="Scommaaccent" unicode="&#x218;" horiz-adv-x="1200" 
d="M516 -155q0 33 22 53t54 20t52 -27q22 -27 22 -65q0 -154 -123 -295h-47q96 106 96 233l14 11h-14q-28 -4 -52 16t-24 54zM1110 375q0 -176 -140 -290t-366 -114t-362 119q-137 119 -154 299l76 21q10 -156 127 -260t311 -104t312 91q116 92 116 238q0 92 -40 143
q-22 28 -42 52t-80 56q-60 33 -127 55t-237 68q-170 45 -252 99q-137 92 -137 251t136 261t337 102t335 -102q133 -103 162 -277l-75 -20q-23 149 -137 237q-115 88 -285 88t-282 -78q-112 -79 -111 -218q0 -95 68 -149q38 -30 68 -49t93 -41q88 -31 197 -58
q235 -59 319 -119q119 -89 145 -159q25 -70 25 -142z" />
    <glyph glyph-name="scommaaccent" unicode="&#x219;" horiz-adv-x="1200" 
d="M516 -155q0 33 22 53t54 20t52 -27q22 -27 22 -65q0 -154 -123 -295h-47q96 106 96 233l14 11h-14q-28 -4 -52 16t-24 54zM1110 375q0 -176 -140 -290t-366 -114t-362 119q-137 119 -154 299l76 21q10 -156 127 -260t311 -104t312 91q116 92 116 238q0 92 -40 143
q-22 28 -42 52t-80 56q-60 33 -127 55t-237 68q-170 45 -252 99q-137 92 -137 251t136 261t337 102t335 -102q133 -103 162 -277l-75 -20q-23 149 -137 237q-115 88 -285 88t-282 -78q-112 -79 -111 -218q0 -95 68 -149q38 -30 68 -49t93 -41q88 -31 197 -58
q235 -59 319 -119q119 -89 145 -159q25 -70 25 -142z" />
    <glyph glyph-name="uni021A" unicode="&#x21a;" horiz-adv-x="1198" 
d="M528 -155q0 33 22 53t54 20t52 -27q22 -27 22 -65q0 -154 -123 -295h-47q96 106 96 233l14 11h-14q-28 -4 -52 16t-24 54zM57 1434h1084v-76h-502v-1358h-80v1358h-502v76z" />
    <glyph glyph-name="uni021B" unicode="&#x21b;" horiz-adv-x="1198" 
d="M579 -82q31 0 53 -27t21 -65q0 -154 -123 -295h-47q96 106 97 233l14 11h-14q-29 -4 -53 16q-23 20 -23 54t21 54q22 19 54 19zM57 1434h1084v-76h-502v-1358h-80v1358h-502v76z" />
    <glyph glyph-name="dotlessj" unicode="&#x237;" horiz-adv-x="1316" 
d="M1075 1434h80v-861q0 -285 -148 -445t-429 -159q-200 1 -346 103t-199 270l80 20q45 -145 173 -231t292 -86q244 0 370 137t127 383v869z" />
    <glyph glyph-name="circumflex" unicode="&#x2c6;" horiz-adv-x="780" 
d="M78 1583l311 264l311 -264l-47 -47l-264 225l-264 -225z" />
    <glyph glyph-name="caron" unicode="&#x2c7;" horiz-adv-x="780" 
d="M78 1759l47 47l264 -225l264 225l47 -47l-311 -262z" />
    <glyph glyph-name="breve" unicode="&#x2d8;" horiz-adv-x="669" 
d="M333 1581q71 0 127 48t72 116h58q-16 -93 -89 -155t-169 -62t-168 62t-88 155h59q15 -70 71 -117t127 -47z" />
    <glyph glyph-name="dotaccent" unicode="&#x2d9;" horiz-adv-x="311" 
d="M152 1563q-31 -1 -53 21q-21 22 -21 52t21 53q22 21 53 21t51 -22t20 -52q0 -31 -20 -52t-51 -21z" />
    <glyph glyph-name="ring" unicode="&#x2da;" horiz-adv-x="524" 
d="M260 1448q51 0 89 37t38 88t-38 87t-89 36t-88 -36t-37 -87t37 -88t88 -37zM259 1391q-75 0 -127 53t-52 129t52 128t127 52t130 -53t55 -127t-55 -128t-130 -54z" />
    <glyph glyph-name="ogonek" unicode="&#x2db;" horiz-adv-x="1228" 
d="M276 -224q0 120 96 198q96 77 222 77l51 -51q-125 0 -215 -57t-90 -181q0 -82 55 -137t147 -55t141 42q50 42 81 114l57 -21q-82 -193 -282 -192q-117 -1 -190 71t-73 192z" />
    <glyph glyph-name="tilde" unicode="&#x2dc;" horiz-adv-x="772" 
d="M524 1569q-66 0 -145 56q-78 56 -122 56q-44 -1 -75 -29t-30 -71h-70q0 70 50 115t118 45q68 -1 147 -57q78 -56 119 -56t71 29q29 29 31 72h70q2 -70 -48 -115t-116 -45z" />
    <glyph glyph-name="hungarumlaut" unicode="&#x2dd;" horiz-adv-x="1044" 
d="M926 1798l35 -61l-418 -215l-31 53zM496 1798l34 -61l-417 -215l-31 53z" />
    <glyph glyph-name="commaaccentcomb" unicode="&#x326;" horiz-adv-x="0" 
d="M196 -82q32 0 54 -27t20 -65q0 -154 -123 -295h-47q97 106 97 233l14 11h-14q-29 -4 -53 16t-24 54t22 54q22 19 54 19z" />
    <glyph glyph-name="Wgrave" unicode="&#x1e80;" horiz-adv-x="1933" 
d="M1796 1434h78l-508 -1434h-61l-250 801q-72 219 -80 276l-6 23h-2l-6 -23q-11 -47 -80 -276l-252 -801h-60l-510 1434h80l396 -1115q18 -51 33 -101t22 -73l8 -22h2l6 22q7 40 49 174l283 893h57l285 -893q21 -68 49 -174l6 -22h2l6 22q8 23 24 73q15 50 32 101z
M1073 1522l-418 215l35 61l414 -223z" />
    <glyph glyph-name="wgrave" unicode="&#x1e81;" horiz-adv-x="1933" 
d="M1796 1434h78l-508 -1434h-61l-250 801q-72 219 -80 276l-6 23h-2l-6 -23q-11 -47 -80 -276l-252 -801h-60l-510 1434h80l396 -1115q18 -51 33 -101t22 -73l8 -22h2l6 22q7 40 49 174l283 893h57l285 -893q21 -68 49 -174l6 -22h2l6 22q8 23 24 73q15 50 32 101z
M1092 1522l-418 215l35 61l413 -223z" />
    <glyph glyph-name="Wacute" unicode="&#x1e82;" horiz-adv-x="1933" 
d="M1796 1434h78l-508 -1434h-61l-250 801q-72 219 -80 276l-6 23h-2l-6 -23q-11 -47 -80 -276l-252 -801h-60l-510 1434h80l396 -1115q18 -51 33 -101t22 -73l8 -22h2l6 22q7 40 49 174l283 893h57l285 -893q21 -68 49 -174l6 -22h2l6 22q8 23 24 73q15 50 32 101z
M1200 1798l35 -61l-418 -215l-31 53z" />
    <glyph glyph-name="wacute" unicode="&#x1e83;" horiz-adv-x="1933" 
d="M1796 1434h78l-508 -1434h-61l-250 801q-72 219 -80 276l-6 23h-2l-6 -23q-11 -47 -80 -276l-252 -801h-60l-510 1434h80l396 -1115q18 -51 33 -101t22 -73l8 -22h2l6 22q7 40 49 174l283 893h57l285 -893q21 -68 49 -174l6 -22h2l6 22q8 23 24 73q15 50 32 101z
M1219 1798l34 -61l-417 -215l-31 53z" />
    <glyph glyph-name="Wdieresis" unicode="&#x1e84;" horiz-adv-x="1933" 
d="M1796 1434h78l-508 -1434h-61l-250 801q-72 219 -80 276l-6 23h-2l-6 -23q-11 -47 -80 -276l-252 -801h-60l-510 1434h80l396 -1115q18 -51 33 -101t22 -73l8 -22h2l6 22q7 40 49 174l283 893h57l285 -893q21 -68 49 -174l6 -22h2l6 22q8 23 24 73q15 50 32 101z
M1179 1563q-32 -1 -54 21q-21 22 -21 52t21 53q22 21 53 21q30 0 52 -22t22 -52q0 -31 -21 -52q-20 -21 -52 -21zM728 1563q-32 -1 -52 21t-20 52t20 53q20 21 52 21t54 -22t21 -52q1 -31 -21 -52t-54 -21z" />
    <glyph glyph-name="wdieresis" unicode="&#x1e85;" horiz-adv-x="1933" 
d="M1796 1434h78l-508 -1434h-61l-250 801q-72 219 -80 276l-6 23h-2l-6 -23q-11 -47 -80 -276l-252 -801h-60l-510 1434h80l396 -1115q18 -51 33 -101t22 -73l8 -22h2l6 22q7 40 49 174l283 893h57l285 -893q21 -68 49 -174l6 -22h2l6 22q8 23 24 73q15 50 32 101z
M1197 1563q-31 -1 -53 21t-22 52t22 53q22 21 54 21t51 -22q21 -22 21 -52q0 -31 -20 -52t-53 -21zM747 1563q-32 0 -53 21q-20 22 -20 52t21 53q22 21 53 21q30 0 52 -22t22 -52q0 -31 -22 -52q-21 -21 -53 -21z" />
    <glyph glyph-name="Germandbls" unicode="&#x1e9e;" horiz-adv-x="1515" 
d="M285 1358v-1358h-78v1434h1067l-262 -471q-30 -58 -78 -127l-16 -29l2 -2h16q223 2 352 -114t129 -299t-129 -302t-330 -119q-156 0 -288 77t-195 208l76 23q55 -106 165 -171t259 -65t257 98q108 97 108 243t-101 248q-100 102 -281 103h-112v70l217 393q12 25 36 65
t40 68l18 27l-2 2h-31l-75 -2h-764z" />
    <glyph glyph-name="Ygrave" unicode="&#x1ef2;" horiz-adv-x="1273" 
d="M676 0h-78v739l-559 695h94l410 -510q20 -23 78 -99l16 -20h2l16 18q16 19 41 53t37 48l408 510h94l-559 -695v-739zM752 1522l-418 215l35 61l413 -223z" />
    <glyph glyph-name="ygrave" unicode="&#x1ef3;" horiz-adv-x="1273" 
d="M676 0h-78v739l-559 695h94l410 -510q20 -23 78 -99l16 -20h2l16 18q16 19 41 53t37 48l408 510h94l-559 -695v-739zM752 1522l-418 215l35 61l413 -223z" />
    <glyph glyph-name="uni2007" unicode="&#x2007;" 
 />
    <glyph glyph-name="uni2009" unicode="&#x2009;" horiz-adv-x="245" 
 />
    <glyph glyph-name="uni200A" unicode="&#x200a;" horiz-adv-x="81" 
 />
    <glyph glyph-name="endash" unicode="&#x2013;" horiz-adv-x="1243" 
d="M207 764h829v-74h-829v74z" />
    <glyph glyph-name="emdash" unicode="&#x2014;" horiz-adv-x="2072" 
d="M207 764h1659v-74h-1659v74z" />
    <glyph glyph-name="quoteleft" unicode="&#x2018;" horiz-adv-x="583" 
d="M283 1229l-17 -10h17q27 1 51 -19t22 -53q0 -33 -22 -52t-52 -19q-32 0 -54 25q-22 26 -21 66q0 154 123 295h47q-94 -108 -94 -233z" />
    <glyph glyph-name="quoteright" unicode="&#x2019;" horiz-adv-x="583" 
d="M227 1390q0 34 22 53q21 19 53 19t54 -26t21 -66q0 -154 -123 -295h-47q96 107 96 234l14 10h-14q-29 -4 -53 16q-24 21 -23 55z" />
    <glyph glyph-name="quotesinglbase" unicode="&#x201a;" horiz-adv-x="583" 
d="M227 44q0 34 22 53q21 19 53 19t54 -26q22 -27 21 -65q0 -154 -123 -295h-47q96 106 96 233l14 10h-14q-29 -3 -53 17t-23 54z" />
    <glyph glyph-name="quotedblleft" unicode="&#x201c;" horiz-adv-x="911" 
d="M610 1229l-16 -10h16q29 1 53 -19q23 -20 23 -53t-22 -52t-55 -19q-31 0 -53 25q-22 26 -21 66q0 154 122 295h48q-95 -112 -95 -233zM283 1229l-17 -10h17q27 1 51 -19t22 -53q0 -33 -22 -52t-52 -19q-32 0 -54 25q-22 26 -21 66q0 154 123 295h47q-94 -108 -94 -233z
" />
    <glyph glyph-name="quotedblright" unicode="&#x201d;" horiz-adv-x="911" 
d="M555 1390q0 34 23 53q22 19 54 19t52 -26t21 -66q0 -156 -121 -295h-49q96 107 96 234l14 10h-14q-29 -4 -53 16q-24 21 -23 55zM227 1390q0 34 22 53q21 19 53 19t54 -26t21 -66q0 -154 -123 -295h-47q96 107 96 234l14 10h-14q-29 -4 -53 16q-24 21 -23 55z" />
    <glyph glyph-name="quotedblbase" unicode="&#x201e;" horiz-adv-x="870" 
d="M514 44q0 34 22 53t54 19t52 -26q22 -27 22 -65q0 -154 -123 -295h-47q96 106 96 233l14 10h-14q-28 -3 -52 17t-24 54zM227 44q0 34 22 53q21 19 53 19t54 -26q22 -27 21 -65q0 -154 -123 -295h-47q96 106 96 233l14 10h-14q-29 -3 -53 17t-23 54z" />
    <glyph glyph-name="dagger" unicode="&#x2020;" horiz-adv-x="997" 
d="M938 1030v-72h-401v-331q1 -243 -5 -435t-8 -192h-53q-10 0 -10 627v331h-404v72h404v404h76v-404h401z" />
    <glyph glyph-name="daggerdbl" unicode="&#x2021;" horiz-adv-x="997" 
d="M537 958v-344h401v-71h-401q-4 -543 -13 -543h-53q-6 0 -10 543h-404v71h404v344h-404v72h404v404h76v-404h401v-72h-401z" />
    <glyph glyph-name="bullet" unicode="&#x2022;" horiz-adv-x="739" 
d="M532 727q0 -68 -46 -115t-116 -47q-69 0 -116 47t-47 115t47 115t116 47q70 0 116 -47t46 -115z" />
    <glyph glyph-name="ellipsis" unicode="&#x2026;" horiz-adv-x="1447" 
d="M1268 -29q-25 -1 -42 17q-18 18 -18 43t18 41t43 16q26 0 42 -17t16 -42t-17 -41t-42 -17zM715 -29q-25 -1 -42 17t-17 43t16 41q18 16 44 16t42 -17t16 -42t-17 -41t-42 -17zM182 -29q-25 -1 -42 17t-17 43t17 41t43 16t42 -17q17 -17 17 -42t-18 -41t-42 -17z" />
    <glyph glyph-name="perthousand" unicode="&#x2030;" horiz-adv-x="2848" 
d="M2380 51q135 -1 217 101t82 249t-82 249t-217 104q-135 0 -217 -102t-82 -250q0 -146 82 -248t217 -103zM1499 51q135 -1 217 101t82 249t-82 249t-217 104q-135 0 -217 -102t-82 -250q0 -146 82 -248t217 -103zM2380 -16q-168 0 -270 119q-101 120 -101 297t101 299
q102 122 270 122t270 -122t102 -299q0 -176 -102 -296t-270 -120zM1499 -16q-168 0 -269 120q-102 120 -102 296q0 177 102 299t269 122q168 0 270 -122q103 -122 103 -299q0 -176 -102 -296t-271 -120zM469 680q135 0 217 101t82 249t-82 250t-217 102t-217 -102t-82 -248
t82 -250q82 -102 217 -102zM471 0l954 1434h70l-950 -1434h-74zM469 612q-168 0 -269 121q-102 121 -102 298t102 298t269 121q168 0 270 -121q103 -121 103 -298t-102 -298t-271 -121z" />
    <glyph glyph-name="guilsinglleft" unicode="&#x2039;" horiz-adv-x="946" 
d="M688 1200l51 -49l-436 -430l436 -430l-51 -49l-481 479z" />
    <glyph glyph-name="guilsinglright" unicode="&#x203a;" horiz-adv-x="946" 
d="M258 1200l481 -479l-481 -479l-51 49l434 430l-434 430z" />
    <glyph glyph-name="fraction" unicode="&#x2044;" horiz-adv-x="223" 
d="M-401 0l954 1434h70l-951 -1434h-73z" />
    <glyph glyph-name="Euro" unicode="&#x20ac;" horiz-adv-x="1638" 
d="M920 -25q-279 0 -485 173t-247 448h-90v68h84q-2 18 -2 51t2 49h-84v67h90q39 275 245 451t487 176q206 0 378 -99t269 -272l-84 -22q-85 147 -233 231t-330 84q-252 0 -434 -150q-181 -151 -220 -399h678v-67h-684q-2 -16 -2 -49t2 -51h684v-68h-676q39 -244 220 -394
t432 -149q195 -1 351 95t238 262l78 -23q-90 -190 -268 -301t-399 -111z" />
    <glyph glyph-name="uni20B9" unicode="&#x20b9;" horiz-adv-x="1163" 
d="M1059 1434v-70h-297q92 -53 151 -139h146v-70h-109q31 -74 31 -160q0 -184 -132 -305t-333 -121h-102l497 -569h-106l-496 569v76h207q166 0 275 98t108 252q0 86 -37 160h-655v70h610q-115 139 -301 139h-309v70h852z" />
    <glyph glyph-name="afii61352" unicode="&#x2116;" horiz-adv-x="2304" 
d="M1567 629h671v-66h-671v66zM1610 1107q0 -126 83 -209t207 -83t208 83t83 209q0 126 -84 209q-83 83 -207 83t-207 -83t-83 -209zM1247 469v965h78v-1434h-74l-807 1087q-84 114 -149 207l-12 19h-2l2 -43l2 -299v-971h-78v1434h74l802 -1080q127 -170 154 -204l14 -21h2
v43q-6 135 -6 297zM1901 1464q149 0 253 -102t104 -255t-104 -255t-254 -102t-252 102q-104 102 -104 255t104 255t253 102z" />
    <glyph glyph-name="trademark" unicode="&#x2122;" horiz-adv-x="1605" 
d="M1401 1434v-666h-66v311q0 107 6 215l2 39h-2l-28 -58q-14 -30 -33 -58l-178 -295h-43l-176 295q-18 31 -33 59t-31 57h-2l2 -39q8 -148 8 -215v-311h-67v666h63l201 -342q27 -48 55 -105h2l26 48q13 26 32 55l198 344h64zM57 1370v64h570v-64h-252v-602h-66v602h-252z
" />
    <glyph glyph-name="oneeighth" unicode="&#x215b;" horiz-adv-x="1394" 
d="M1067 389q-101 0 -165 -46t-64 -123t63 -125t167 -48t167 48t63 124t-64 123q-65 47 -167 47zM1068 760q-88 0 -144 -40t-56 -108t56 -110t144 -42q89 1 143 43q55 41 55 109t-54 108t-144 40zM1364 214q0 -95 -83 -162q-83 -66 -213 -66t-213 66t-83 162q0 95 62 148
t127 62v2q-47 10 -102 60q-54 50 -54 134t74 142q75 58 189 59q114 0 188 -58q74 -59 75 -143q0 -84 -54 -134t-101 -60v-2q66 -8 127 -62t61 -148zM113 0l954 1434h70l-951 -1434h-73zM256 1161q0 104 10 174v15h-2l-33 -43q-14 -18 -28 -33l-125 -123l-45 43l246 240h47
v-805h-70v532z" />
    <glyph glyph-name="threeeighths" unicode="&#x215c;" horiz-adv-x="1560" 
d="M1233 389q-101 0 -165 -46t-64 -123t63 -125t167 -48t167 48t63 124t-64 123q-65 47 -167 47zM1234 760q-88 0 -144 -40t-56 -108t56 -110t144 -42q89 1 143 43q55 41 55 109t-54 108t-144 40zM938 214q0 95 61 148t127 62v2q-47 10 -101 60t-54 134t73 143q74 58 189 58
t189 -58q74 -59 75 -143q-1 -84 -55 -134t-101 -60v-2q66 -8 127 -62q62 -54 62 -148q0 -95 -83 -162q-83 -66 -213 -66t-213 66t-83 162zM279 0l954 1434h70l-951 -1434h-73zM352 1450q124 0 191 -61t67 -145t-54 -136q-54 -53 -134 -59v-2q82 -5 138 -57t56 -148t-78 -162
q-78 -68 -196 -68q-119 0 -205 71t-96 185l68 15q2 -92 67 -149q66 -56 166 -56t154 51q53 51 53 126q1 75 -59 119t-154 44h-86v57h86q94 0 150 46q56 45 56 109t-49 110q-50 46 -155 46q-178 0 -217 -184l-64 21q15 103 93 165t202 62z" />
    <glyph glyph-name="fiveeighths" unicode="&#x215d;" horiz-adv-x="1536" 
d="M1206 389q-102 0 -166 -46t-63 -123q-1 -77 63 -125t167 -48t167 48t64 124t-65 123t-167 47zM1008 612q0 -68 55 -110t144 -42q89 1 144 43q54 41 54 109t-54 108q-53 40 -143 40t-145 -40t-55 -108zM1503 214q0 -95 -83 -162q-83 -66 -213 -66t-213 66t-83 162
q-1 95 61 148t128 62v2q-47 10 -102 60q-54 50 -54 134t74 142t188 59q114 0 190 -58q74 -59 74 -143t-54 -134t-101 -60v-2q66 -8 127 -62t61 -148zM1206 1434h70l-950 -1434h-74zM330 612q-122 0 -197 68q-76 68 -92 180l65 19q10 -93 68 -147t154 -54q98 0 157 58t59 154
t-58 153q-60 59 -147 59t-139 -33t-73 -72l-57 15l65 422h432v-64h-374l-29 -160q-10 -63 -18 -81q-7 -19 -11 -33l-6 -21l2 -2q27 35 79 63t120 27q125 0 204 -77q78 -78 78 -198t-80 -198t-202 -78z" />
    <glyph glyph-name="seveneighths" unicode="&#x215e;" horiz-adv-x="1329" 
d="M999 389q-101 0 -165 -46t-64 -123t64 -125t166 -48q103 0 167 48q63 48 63 124t-64 123q-65 47 -167 47zM801 612q0 -68 55 -110t144 -42q89 1 144 43q54 41 54 109t-54 108t-144 40t-144 -40q-55 -40 -55 -108zM1296 214q0 -95 -83 -162q-83 -66 -213 -66t-213 66
t-83 162q0 95 62 148q61 53 127 62v2q-47 10 -101 60t-54 134t73 142q75 58 189 59q114 0 189 -58q75 -59 75 -143t-54 -134t-102 -60v-2q66 -8 127 -62t61 -148zM45 0l954 1434h70l-950 -1434h-74zM20 1370v64h560v-50l-430 -755h-70l381 671q21 38 55 72l-2 2h-6l-75 -4
h-413z" />
    <glyph glyph-name="minus" unicode="&#x2212;" 
d="M238 764h956v-72h-956v72z" />
    <glyph glyph-name="notequal" unicode="&#x2260;" 
d="M1194 856h-385l-131 -256h516v-72h-551l-139 -270h-78l139 270h-327v72h362l131 256h-493v72h530l150 291h77l-149 -291h348v-72z" />
    <glyph glyph-name="lessequal" unicode="&#x2264;" 
d="M1178 51v-71h-957v71h957zM1171 264h-133l-813 488l826 499h133l-824 -499z" />
    <glyph glyph-name="greaterequal" unicode="&#x2265;" 
d="M252 51h956v-71h-956v71zM258 264l811 488l-823 499h133l825 -499l-813 -488h-133z" />
    <glyph glyph-name="lozenge" unicode="&#x25ca;" horiz-adv-x="1603" 
d="M803 1364l-649 -647l649 -647l647 647zM803 -29l-746 746l746 745l745 -745z" />
    <glyph glyph-name="Cacute.loclPLK" horiz-adv-x="1564" 
d="M842 -29q-311 0 -528 212q-216 212 -216 534q0 321 216 533t528 212q209 0 381 -100t270 -272l-80 -21q-83 147 -235 233t-336 84q-283 0 -473 -186q-191 -186 -191 -481t190 -482t474 -188q194 0 352 96t242 263l77 -23q-92 -193 -270 -303t-401 -111zM948 1878l68 -39
l-205 -328l-59 33z" />
    <glyph glyph-name="I.ss03" horiz-adv-x="811" 
d="M444 74h269v-74h-615v74h269v1286h-261v74h599v-74h-261v-1286z" />
    <glyph glyph-name="IJ.ss03" horiz-adv-x="2107" 
d="M1866 1434h80v-861q0 -285 -148 -445t-430 -159q-199 1 -345 103t-200 270l80 20q45 -145 173 -231t292 -86q244 0 371 137t127 383v869zM444 1360v-1286h269v-74h-615v74h269v1286h-261v74h599v-74h-261z" />
    <glyph glyph-name="IJ.ss03.ss04" horiz-adv-x="2113" 
d="M1192 1434h760v-861q0 -285 -148 -445t-430 -159q-199 1 -345 103t-200 270l80 20q45 -145 173 -231t292 -86q244 0 371 137t127 383v793h-680v76zM444 1360v-1286h269v-74h-615v74h269v1286h-261v74h599v-74h-261z" />
    <glyph glyph-name="IJ.ss04" horiz-adv-x="1796" 
d="M872 1434h760v-861q0 -285 -148 -445t-429 -159q-199 1 -345 103t-200 270l80 20q45 -145 173 -231t292 -86q245 0 371 137t126 383v793h-680v76zM207 0v1434h78v-1434h-78z" />
    <glyph glyph-name="Iacute.ss03" horiz-adv-x="811" 
d="M444 74h269v-74h-615v74h269v1286h-261v74h599v-74h-261v-1286zM682 1737l-418 -215l-31 53l414 223z" />
    <glyph glyph-name="Icircumflex.ss03" horiz-adv-x="811" 
d="M444 1360v-1286h269v-74h-615v74h269v1286h-261v74h599v-74h-261zM403 1761l-264 -225l-47 47l311 264l312 -264l-47 -47z" />
    <glyph glyph-name="Idieresis.ss03" horiz-adv-x="811" 
d="M444 74h269v-74h-615v74h269v1286h-261v74h599v-74h-261v-1286zM626 1563q-32 -1 -54 21t-22 52t22 53q22 21 53 21t53 -22t20 -52q0 -31 -20 -52t-52 -21zM175 1563q-32 -1 -52 21q-21 22 -21 52t20 53q20 21 53 21q31 0 53 -22t22 -52q0 -31 -22 -52t-53 -21z" />
    <glyph glyph-name="Idotaccent.ss03" horiz-adv-x="811" 
d="M444 74h269v-74h-615v74h269v1286h-261v74h599v-74h-261v-1286zM406 1563q-31 -1 -53 21q-21 22 -21 52t21 53q22 21 53 21t51 -22t20 -52q0 -31 -20 -52t-51 -21z" />
    <glyph glyph-name="Igrave.ss03" horiz-adv-x="811" 
d="M444 74h269v-74h-615v74h269v1286h-261v74h599v-74h-261v-1286zM551 1575l-31 -53l-418 215l35 61z" />
    <glyph glyph-name="Imacron.ss03" horiz-adv-x="811" 
d="M444 74h269v-74h-615v74h269v1286h-261v74h599v-74h-261v-1286zM705 1673v-65h-599v65h599z" />
    <glyph glyph-name="Iogonek.ss03" horiz-adv-x="811" 
d="M713 0h-318q-125 0 -215 -57t-90 -181q0 -82 55 -137t147 -55t141 42q50 42 81 114l59 -21q-86 -193 -284 -192q-117 -1 -190 71t-72 178q0 156 131 238h-60v74h269v1286h-261v74h599v-74h-261v-1286h269v-74z" />
    <glyph glyph-name="J.ss04" horiz-adv-x="1316" 
d="M395 1434h760v-861q0 -285 -148 -445t-429 -159q-200 1 -346 103t-199 270l80 20q45 -145 173 -231t292 -86q244 0 370 137t127 383v793h-680v76z" />
    <glyph glyph-name="Jcircumflex.ss04" horiz-adv-x="1316" 
d="M395 1434h760v-861q0 -285 -148 -445t-429 -159q-200 1 -346 103t-199 270l80 20q45 -145 173 -231t292 -86q244 0 370 137t127 383v793h-680v76zM776 1761l-264 -225l-45 47l309 264l311 -264l-47 -47z" />
    <glyph glyph-name="N.ss02" horiz-adv-x="1531" 
d="M1247 1434h78v-1434h-78v590l-737 569q-131 104 -201 164l-26 20h-2v-10l2 -70v-56l2 -134v-1073h-78v1434h78l610 -480q346 -274 352 -274h2v65l-2 104v585z" />
    <glyph glyph-name="Nacute.loclPLK" horiz-adv-x="1531" 
d="M1247 469v965h78v-1434h-74l-807 1087q-84 114 -149 207l-12 19h-2l2 -43l2 -299v-971h-78v1434h74l802 -1080q127 -170 154 -204l14 -21h2v43q-6 135 -6 297zM889 1878l67 -39l-204 -328l-60 33z" />
    <glyph glyph-name="Nacute.loclPLK.ss02" horiz-adv-x="1531" 
d="M1247 1434h78v-1434h-78v590l-737 569q-131 104 -201 164l-26 20h-2v-10l2 -70v-56l2 -134v-1073h-78v1434h78l610 -480q346 -274 352 -274h2v65l-2 104v585zM907 1878l68 -39l-205 -328l-59 33z" />
    <glyph glyph-name="Nacute.ss02" horiz-adv-x="1531" 
d="M1247 1434h78v-1434h-78v590l-737 569q-131 104 -201 164l-26 20h-2v-10l2 -70v-56l2 -134v-1073h-78v1434h78l610 -480q346 -274 352 -274h2v65l-2 104v585zM1030 1798l35 -61l-418 -215l-31 53z" />
    <glyph glyph-name="Ncaron.ss02" horiz-adv-x="1531" 
d="M1247 1434h78v-1434h-78v590l-737 569q-131 104 -201 164l-26 20h-2v-10l2 -70v-56l2 -134v-1073h-78v1434h78l610 -480q346 -274 352 -274h2v65l-2 104v585zM477 1759l47 47l264 -225l265 225l47 -47l-312 -264z" />
    <glyph glyph-name="Ncommaaccent.ss02" horiz-adv-x="1531" 
d="M698 -155q0 33 22 53t54 20t52 -27q22 -27 22 -65q0 -154 -123 -295h-47q96 106 96 233l14 11h-14q-28 -4 -52 16t-24 54zM1247 1434h78v-1434h-78v590l-737 569q-131 104 -201 164l-26 20h-2v-10l2 -70v-56l2 -134v-1073h-78v1434h78l610 -480q346 -274 352 -274h2v65
l-2 104v585z" />
    <glyph glyph-name="Ntilde.ss02" horiz-adv-x="1531" 
d="M1247 1434h78v-1434h-78v590l-737 569q-131 104 -201 164l-26 20h-2v-10l2 -70v-56l2 -134v-1073h-78v1434h78l610 -480q346 -274 352 -274h2v65l-2 104v585zM920 1569q-66 0 -144 56t-122 56q-44 -1 -74 -29t-31 -71h-70q0 70 50 115q51 45 119 45q68 -1 146 -57
t120 -56q40 0 70 29t32 72h69q2 -70 -48 -115q-51 -45 -117 -45z" />
    <glyph glyph-name="Oacute.loclPLK" horiz-adv-x="1685" 
d="M842 1386q-284 0 -474 -186t-190 -481t190 -483t473 -188t475 188t192 482t-192 481q-191 187 -474 187zM98 717q0 321 216 533t528 212t529 -212q216 -212 216 -534t-216 -533q-216 -212 -528 -212t-529 212q-216 212 -216 534zM971 1878l67 -39l-204 -328l-60 33z" />
    <glyph glyph-name="Q.ss01" horiz-adv-x="1705" 
d="M840 1386q-282 0 -472 -183t-190 -471t190 -472t471 -184t473 184t192 472t-192 471q-191 183 -472 183zM1384 76h218v-76h-764q-311 0 -526 208q-214 208 -214 523t215 523t527 208t527 -209q216 -209 216 -522q0 -233 -128 -413t-335 -255l2 -2h6q45 15 256 15z" />
    <glyph glyph-name="Sacute.loclPLK" horiz-adv-x="1200" 
d="M1110 375q0 -176 -140 -290t-366 -114t-362 119q-137 119 -154 299l76 21q10 -156 127 -260t311 -104t312 91q116 92 116 238q0 92 -40 143q-22 28 -42 52t-80 56q-60 33 -127 55t-237 68q-170 45 -252 99q-137 92 -137 251t136 261t337 102t335 -102q133 -103 162 -277
l-75 -20q-23 149 -137 237q-115 88 -285 88t-282 -78q-112 -79 -111 -218q0 -95 68 -149q38 -30 68 -49t93 -41q88 -31 197 -58q235 -59 319 -119q119 -89 145 -159q25 -70 25 -142zM719 1878l67 -39l-204 -328l-60 33z" />
    <glyph glyph-name="Y.ss05" horiz-adv-x="1273" 
d="M983 766v-70h-307v-696h-78v696h-303v70h283l-539 668h94l410 -510q20 -23 78 -99l16 -20h2l16 18q16 19 41 53t37 48l408 510h94l-539 -668h287z" />
    <glyph glyph-name="Yacute.ss05" horiz-adv-x="1273" 
d="M983 766v-70h-307v-696h-78v696h-303v70h283l-539 668h94l410 -510q20 -23 78 -99l16 -20h2l16 18q16 19 41 53t37 48l408 510h94l-539 -668h287zM913 1737l-417 -215l-31 53l414 223z" />
    <glyph glyph-name="Ycircumflex.ss05" horiz-adv-x="1273" 
d="M983 766v-70h-307v-696h-78v696h-303v70h283l-539 668h94l410 -510q20 -23 78 -99l16 -20h2l16 18q16 19 41 53t37 48l408 510h94l-539 -668h287zM635 1761l-264 -225l-47 47l311 264l311 -264l-47 -47z" />
    <glyph glyph-name="Ydieresis.ss05" horiz-adv-x="1273" 
d="M983 766v-70h-307v-696h-78v696h-303v70h283l-539 668h94l410 -510q20 -23 78 -99l16 -20h2l16 18q16 19 41 53t37 48l408 510h94l-539 -668h287zM857 1563q-31 -1 -53 21t-22 52t22 53q22 21 54 21t51 -22q21 -22 21 -52q0 -31 -20 -52t-53 -21zM407 1563q-32 0 -53 21
q-20 22 -20 52t21 53q22 21 53 21q30 0 52 -22t22 -52q0 -31 -22 -52q-21 -21 -53 -21z" />
    <glyph glyph-name="Ygrave.ss05" horiz-adv-x="1273" 
d="M983 766v-70h-307v-696h-78v696h-303v70h283l-539 668h94l410 -510q20 -23 78 -99l16 -20h2l16 18q16 19 41 53t37 48l408 510h94l-539 -668h287zM782 1575l-30 -53l-418 215l35 61z" />
    <glyph glyph-name="Zacute.loclPLK" horiz-adv-x="1390" 
d="M143 1358v76h1125v-72l-955 -1182q-59 -73 -84 -94l-10 -12l2 -2h8l105 4h934v-76h-1145v72l958 1183q16 20 41 45l41 41l15 17l-2 2h-28l-81 -2h-924zM815 1878l68 -39l-205 -328l-60 33z" />
    <glyph glyph-name="cacute.loclPLK" horiz-adv-x="1564" 
d="M842 -29q-311 0 -528 212q-216 212 -216 534q0 321 216 533t528 212q209 0 381 -100t270 -272l-80 -21q-83 147 -235 233t-336 84q-283 0 -473 -186q-191 -186 -191 -481t190 -482t474 -188q194 0 352 96t242 263l77 -23q-92 -193 -270 -303t-401 -111zM948 1878l68 -39
l-205 -328l-59 33z" />
    <glyph glyph-name="dotlessj.ss04" horiz-adv-x="1316" 
d="M395 1434h760v-861q0 -285 -148 -445t-429 -159q-200 1 -346 103t-199 270l80 20q45 -145 173 -231t292 -86q244 0 370 137t127 383v793h-680v76z" />
    <glyph glyph-name="i.ss03" horiz-adv-x="811" 
d="M444 74h269v-74h-615v74h269v1286h-261v74h599v-74h-261v-1286z" />
    <glyph glyph-name="iacute.ss03" horiz-adv-x="811" 
d="M444 74h269v-74h-615v74h269v1286h-261v74h599v-74h-261v-1286zM682 1737l-418 -215l-31 53l414 223z" />
    <glyph glyph-name="icircumflex.ss03" horiz-adv-x="811" 
d="M444 1360v-1286h269v-74h-615v74h269v1286h-261v74h599v-74h-261zM403 1761l-264 -225l-47 47l311 264l312 -264l-47 -47z" />
    <glyph glyph-name="idieresis.ss03" horiz-adv-x="811" 
d="M444 74h269v-74h-615v74h269v1286h-261v74h599v-74h-261v-1286zM626 1563q-32 -1 -54 21t-22 52t22 53q22 21 53 21t53 -22t20 -52q0 -31 -20 -52t-52 -21zM175 1563q-32 -1 -52 21q-21 22 -21 52t20 53q20 21 53 21q31 0 53 -22t22 -52q0 -31 -22 -52t-53 -21z" />
    <glyph glyph-name="idotaccent.ss03" horiz-adv-x="811" 
d="M444 74h269v-74h-615v74h269v1286h-261v74h599v-74h-261v-1286zM406 1563q-31 -1 -53 21q-21 22 -21 52t21 53q22 21 53 21t51 -22t20 -52q0 -31 -20 -52t-51 -21z" />
    <glyph glyph-name="igrave.ss03" horiz-adv-x="811" 
d="M444 74h269v-74h-615v74h269v1286h-261v74h599v-74h-261v-1286zM551 1575l-31 -53l-418 215l35 61z" />
    <glyph glyph-name="ij.ss03" horiz-adv-x="2107" 
d="M1866 1434h80v-861q0 -285 -148 -445t-430 -159q-199 1 -345 103t-200 270l80 20q45 -145 173 -231t292 -86q244 0 371 137t127 383v869zM444 1360v-1286h269v-74h-615v74h269v1286h-261v74h599v-74h-261z" />
    <glyph glyph-name="ij.ss03.ss04" horiz-adv-x="2113" 
d="M1192 1434h760v-861q0 -285 -148 -445t-430 -159q-199 1 -345 103t-200 270l80 20q45 -145 173 -231t292 -86q244 0 371 137t127 383v793h-680v76zM444 1360v-1286h269v-74h-615v74h269v1286h-261v74h599v-74h-261z" />
    <glyph glyph-name="ij.ss04" horiz-adv-x="1796" 
d="M872 1434h760v-861q0 -285 -148 -445t-429 -159q-199 1 -345 103t-200 270l80 20q45 -145 173 -231t292 -86q245 0 371 137t126 383v793h-680v76zM207 0v1434h78v-1434h-78z" />
    <glyph glyph-name="imacron.ss03" horiz-adv-x="811" 
d="M444 74h269v-74h-615v74h269v1286h-261v74h599v-74h-261v-1286zM705 1673v-65h-599v65h599z" />
    <glyph glyph-name="iogonek.ss03" horiz-adv-x="811" 
d="M713 0h-318q-125 0 -215 -57t-90 -181q0 -82 55 -137t147 -55t141 42q50 42 81 114l59 -21q-86 -193 -284 -192q-117 -1 -190 71t-72 178q0 156 131 238h-60v74h269v1286h-261v74h599v-74h-261v-1286h269v-74z" />
    <glyph glyph-name="j.ss04" horiz-adv-x="1316" 
d="M395 1434h760v-861q0 -285 -148 -445t-429 -159q-200 1 -346 103t-199 270l80 20q45 -145 173 -231t292 -86q244 0 370 137t127 383v793h-680v76z" />
    <glyph glyph-name="jcircumflex.ss04" horiz-adv-x="1316" 
d="M395 1434h760v-861q0 -285 -148 -445t-429 -159q-200 1 -346 103t-199 270l80 20q45 -145 173 -231t292 -86q244 0 370 137t127 383v793h-680v76zM776 1761l-264 -225l-47 47l311 264l311 -264l-47 -47z" />
    <glyph glyph-name="n.ss02" horiz-adv-x="1531" 
d="M1247 1434h78v-1434h-78v590l-737 569q-131 104 -201 164l-26 20h-2v-10l2 -70v-56l2 -134v-1073h-78v1434h78l610 -480q346 -274 352 -274h2v65l-2 104v585z" />
    <glyph glyph-name="nacute.loclPLK" horiz-adv-x="1531" 
d="M1247 469v965h78v-1434h-74l-807 1087q-84 114 -149 207l-12 19h-2l2 -43l2 -299v-971h-78v1434h74l802 -1080q127 -170 154 -204l14 -21h2v43q-6 135 -6 297zM889 1878l67 -39l-204 -328l-60 33z" />
    <glyph glyph-name="nacute.loclPLK.ss02" horiz-adv-x="1531" 
d="M1247 1434h78v-1434h-78v590l-737 569q-131 104 -201 164l-26 20h-2v-10l2 -70v-56l2 -134v-1073h-78v1434h78l610 -480q346 -274 352 -274h2v65l-2 104v585zM907 1878l68 -39l-205 -328l-59 33z" />
    <glyph glyph-name="nacute.ss02" horiz-adv-x="1531" 
d="M1247 1434h78v-1434h-78v590l-737 569q-131 104 -201 164l-26 20h-2v-10l2 -70v-56l2 -134v-1073h-78v1434h78l610 -480q346 -274 352 -274h2v65l-2 104v585zM1030 1798l35 -61l-418 -215l-31 53z" />
    <glyph glyph-name="ncaron.ss02" horiz-adv-x="1531" 
d="M1247 1434h78v-1434h-78v590l-737 569q-131 104 -201 164l-26 20h-2v-10l2 -70v-56l2 -134v-1073h-78v1434h78l610 -480q346 -274 352 -274h2v65l-2 104v585zM477 1759l47 47l264 -225l265 225l47 -47l-312 -264z" />
    <glyph glyph-name="ncommaaccent.ss02" horiz-adv-x="1531" 
d="M698 -155q0 33 22 53t54 20t52 -27q22 -27 22 -65q0 -154 -123 -295h-47q96 106 96 233l14 11h-14q-28 -4 -52 16t-24 54zM1247 1434h78v-1434h-78v590l-737 569q-131 104 -201 164l-26 20h-2v-10l2 -70v-56l2 -134v-1073h-78v1434h78l610 -480q346 -274 352 -274h2v65
l-2 104v585z" />
    <glyph glyph-name="ntilde.ss02" horiz-adv-x="1531" 
d="M1247 1434h78v-1434h-78v590l-737 569q-131 104 -201 164l-26 20h-2v-10l2 -70v-56l2 -134v-1073h-78v1434h78l610 -480q346 -274 352 -274h2v65l-2 104v585zM920 1569q-66 0 -144 56t-122 56q-44 -1 -74 -29t-31 -71h-70q0 70 50 115q51 45 119 45q68 -1 146 -57
t120 -56q40 0 70 29t32 72h69q2 -70 -48 -115q-51 -45 -117 -45z" />
    <glyph glyph-name="oacute.loclPLK" horiz-adv-x="1685" 
d="M842 1386q-284 0 -474 -186t-190 -481t190 -483t473 -188t475 188t192 482t-192 481q-191 187 -474 187zM98 717q0 321 216 533t528 212t529 -212q216 -212 216 -534t-216 -533q-216 -212 -528 -212t-529 212q-216 212 -216 534zM971 1878l67 -39l-204 -328l-60 33z" />
    <glyph glyph-name="q.ss01" horiz-adv-x="1705" 
d="M840 1386q-282 0 -472 -183t-190 -471t190 -472t471 -184t473 184t192 472t-192 471q-191 183 -472 183zM1384 76h218v-76h-764q-311 0 -526 208q-214 208 -214 523t215 523t527 208t527 -209q216 -209 216 -522q0 -233 -128 -413t-335 -255l2 -2h6q45 15 256 15z" />
    <glyph glyph-name="sacute.loclPLK" horiz-adv-x="1200" 
d="M1110 375q0 -176 -140 -290t-366 -114t-362 119q-137 119 -154 299l76 21q10 -156 127 -260t311 -104t312 91q116 92 116 238q0 92 -40 143q-22 28 -42 52t-80 56q-60 33 -127 55t-237 68q-170 45 -252 99q-137 92 -137 251t136 261t337 102t335 -102q133 -103 162 -277
l-75 -20q-23 149 -137 237q-115 88 -285 88t-282 -78q-112 -79 -111 -218q0 -95 68 -149q38 -30 68 -49t93 -41q88 -31 197 -58q235 -59 319 -119q119 -89 145 -159q25 -70 25 -142zM719 1878l67 -39l-204 -328l-60 33z" />
    <glyph glyph-name="y.ss05" horiz-adv-x="1273" 
d="M983 766v-70h-307v-696h-78v696h-303v70h283l-539 668h94l410 -510q20 -23 78 -99l16 -20h2l16 18q16 19 41 53t37 48l408 510h94l-539 -668h287z" />
    <glyph glyph-name="yacute.ss05" horiz-adv-x="1273" 
d="M983 766v-70h-307v-696h-78v696h-303v70h283l-539 668h94l410 -510q20 -23 78 -99l16 -20h2l16 18q16 19 41 53t37 48l408 510h94l-539 -668h287zM913 1737l-417 -215l-31 53l414 223z" />
    <glyph glyph-name="ycircumflex.ss05" horiz-adv-x="1273" 
d="M983 766v-70h-307v-696h-78v696h-303v70h283l-539 668h94l410 -510q20 -23 78 -99l16 -20h2l16 18q16 19 41 53t37 48l408 510h94l-539 -668h287zM635 1761l-264 -225l-47 47l311 264l311 -264l-47 -47z" />
    <glyph glyph-name="ydieresis.ss05" horiz-adv-x="1273" 
d="M983 766v-70h-307v-696h-78v696h-303v70h283l-539 668h94l410 -510q20 -23 78 -99l16 -20h2l16 18q16 19 41 53t37 48l408 510h94l-539 -668h287zM857 1563q-31 -1 -53 21t-22 52t22 53q22 21 54 21t51 -22q21 -22 21 -52q0 -31 -20 -52t-53 -21zM407 1563q-32 0 -53 21
q-20 22 -20 52t21 53q22 21 53 21q30 0 52 -22t22 -52q0 -31 -22 -52q-21 -21 -53 -21z" />
    <glyph glyph-name="ygrave.ss05" horiz-adv-x="1273" 
d="M983 766v-70h-307v-696h-78v696h-303v70h283l-539 668h94l410 -510q20 -23 78 -99l16 -20h2l16 18q16 19 41 53t37 48l408 510h94l-539 -668h287zM782 1575l-30 -53l-418 215l35 61z" />
    <glyph glyph-name="zacute.loclPLK" horiz-adv-x="1390" 
d="M143 1358v76h1125v-72l-955 -1182q-59 -73 -84 -94l-10 -12l2 -2h8l105 4h934v-76h-1145v72l958 1183q16 20 41 45l41 41l15 17l-2 2h-28l-81 -2h-924zM815 1878l68 -39l-205 -328l-60 33z" />
    <glyph glyph-name="zero.slsh" horiz-adv-x="1470" 
d="M730 47q183 0 312 95q250 184 250 575q0 328 -182 516l-698 -1077q135 -109 318 -109zM367 197l696 1079q-133 111 -328 110q-262 0 -409 -196t-148 -473q1 -332 189 -520zM735 1462q197 0 345 -105t220 -273t72 -368q0 -198 -72 -366t-220 -273t-345 -105t-345 104
q-148 106 -220 274t-72 367t72 367t220 272q148 106 345 106z" />
    <glyph glyph-name="zero.sups" horiz-adv-x="806" 
d="M403 1012q135 0 218 101q81 101 81 249t-81 250t-217 102t-218 -102t-82 -248t82 -250q82 -102 217 -102zM403 944q-168 0 -269 121t-101 298t101 298t269 121q169 0 271 -121t102 -298t-102 -298t-271 -121z" />
    <glyph glyph-name="four.sups" horiz-adv-x="675" 
d="M453 1245v203l2 100l6 97q0 10 2 16v6h-2l-23 -33q-76 -103 -127 -164l-110 -124q-36 -45 -90 -84l-19 -17l2 -2h8l58 2h293zM633 1245v-63h-113v-221h-67v221h-433v49l455 534h45v-520h113z" />
    <glyph glyph-name="five.sups" horiz-adv-x="653" 
d="M330 1495q125 0 204 -77q78 -78 78 -198t-80 -198t-202 -78t-197 68q-76 68 -92 180l65 18q10 -92 68 -146t154 -54q98 0 157 58t59 154t-58 153q-60 59 -147 59t-139 -33t-73 -72l-57 14l65 422h432v-63h-374l-29 -160q-10 -63 -18 -81q-7 -19 -11 -33l-6 -21l2 -2
q27 35 79 63t120 27z" />
    <glyph glyph-name="six.sups" horiz-adv-x="663" 
d="M326 1010q100 0 162 59t66 155t-60 156t-166 60t-166 -60t-64 -155t64 -155t164 -60zM332 1503q127 0 209 -79q82 -78 82 -200t-83 -201t-212 -79t-212 79t-83 207t94 253l217 282h78l-301 -372l2 -2q2 2 11 13t13 15l15 15q10 10 17 15t19 14q52 40 134 40z" />
    <glyph glyph-name="seven.sups" horiz-adv-x="589" 
d="M20 1702v63h560v-49l-430 -755h-70l381 671q21 38 55 72l-2 2h-6l-75 -4h-413z" />
    <glyph glyph-name="eight.sups" horiz-adv-x="657" 
d="M98 1181q0 -77 64 -125t166 -48q104 0 168 48q63 48 63 124t-64 123q-65 47 -167 47t-166 -46t-64 -123zM526 1573q0 67 -54 107t-143 40t-145 -40t-55 -107q0 -68 55 -111q54 -43 144 -42t144 43t54 110zM33 1175q0 95 61 148t127 61v2q-47 10 -101 60t-54 135
q0 84 73 142q74 59 189 59q116 0 190 -58t74 -143t-54 -135t-102 -60v-2q66 -8 127 -61t61 -149t-82 -162q-83 -66 -213 -66t-213 67t-83 162z" />
    <glyph glyph-name="nine.sups" horiz-adv-x="653" 
d="M328 1718q-100 0 -162 -60t-66 -156t60 -156t166 -60t166 60t63 155q0 96 -63 157q-64 60 -164 60zM316 1225q-120 0 -202 78q-81 77 -81 199t82 201t211 79t213 -79t84 -212t-152 -315l-184 -215h-80l311 360l-2 2q-80 -98 -200 -98z" />
    <glyph glyph-name="zero.tf" 
d="M728 1386q-118 0 -206 -40q-155 -73 -228 -249t-74 -378t73 -379q74 -178 229 -252q86 -41 205 -41q119 1 219 61q174 105 238 374q27 114 26 235q0 121 -26 234q-64 271 -238 375q-100 60 -218 60zM715 1462q147 0 262 -66q203 -117 279 -414q34 -128 34 -265
q0 -278 -133 -503q-67 -110 -181 -176t-261 -67q-147 0 -262 67q-204 119 -280 414q-34 128 -34 265q0 278 133 503q66 110 181 176t262 66z" />
    <glyph glyph-name="one.tf" 
d="M813 1434v-1358h363v-76h-805v76h362v1038l4 178l2 29h-2l-20 -23q-23 -22 -49 -52t-37 -40l-242 -237l-53 51l420 414h57z" />
    <glyph glyph-name="two.tf" 
d="M1184 76v-76h-969v63q500 409 688 564q88 72 146 174q57 102 57 219q0 162 -110 265t-279 104q-350 -1 -436 -320l-76 21q109 373 512 372q207 0 338 -125t131 -315q0 -108 -26 -166q-26 -57 -38 -89q-14 -32 -48 -71t-48 -58t-59 -57q-45 -39 -57 -49t-61 -48
q-50 -38 -54 -42l-465 -370l2 -2h4l70 4l88 2h690z" />
    <glyph glyph-name="three.tf" 
d="M717 1462q125 0 220 -34t148 -89q105 -109 105 -250t-96 -237t-234 -102v-2q144 -8 244 -98t100 -240q0 -201 -136 -320t-343 -119t-353 113t-175 301l71 21q20 -164 146 -262t316 -99q188 0 291 103q103 102 103 258t-110 230t-305 75h-127v71h129q399 0 399 312
q0 110 -94 202t-299 93q-338 0 -414 -324l-74 20q39 177 167 277t321 100z" />
    <glyph glyph-name="four.tf" 
d="M958 485v608l5 162l2 56v6h-2l-21 -27q-44 -63 -143 -182l-387 -457q-33 -39 -62 -71t-44 -48l-25 -27q-10 -11 -19 -20l2 -2l268 2h426zM1249 485v-73h-215v-412h-76v412h-794v53l813 969h57v-949h215z" />
    <glyph glyph-name="five.tf" 
d="M727 934q213 0 352 -135t139 -344t-138 -346q-140 -137 -351 -137t-348 112q-137 113 -174 299l74 20q31 -166 147 -262t297 -96q180 0 297 117t117 293t-117 293t-295 116q-291 0 -389 -219l-70 21l125 768h742v-76h-682l-52 -318q-28 -175 -47 -241l-8 -33l2 -2
q42 62 144 116t235 54z" />
    <glyph glyph-name="six.tf" 
d="M714 45q196 0 316 116t125 301q4 185 -118 298q-123 112 -321 112t-319 -112t-121 -298q0 -185 121 -301t317 -116zM714 944q230 0 374 -137t145 -347q-1 -210 -147 -349t-371 -139t-371 140t-147 353q0 123 39 227t131 226l393 516h92l-496 -650l2 -2q126 162 356 162z
" />
    <glyph glyph-name="seven.tf" 
d="M225 1358v76h983v-56l-774 -1378h-84l682 1212q37 71 80 127l14 21l-2 2h-12l-126 -4h-761z" />
    <glyph glyph-name="eight.tf" 
d="M264 387q0 -158 120 -251t330 -93t330 93t121 251q0 158 -121 246q-120 88 -330 88t-330 -88t-120 -246zM714 1393q-172 0 -280 -85q-110 -85 -110 -217t110 -213t281 -79q173 2 281 82t108 211t-109 216t-281 85zM1180 1096q0 -152 -110 -240t-202 -92v-2
q152 -12 264 -112t111 -261q0 -188 -144 -302t-384 -114t-384 114q-145 114 -145 288t112 274t265 113v2q-94 4 -204 92q-109 88 -109 240t130 260t335 106q205 0 335 -108t130 -258z" />
    <glyph glyph-name="nine.tf" 
d="M1133 978q0 202 -127 306q-128 104 -318 105q-190 -1 -320 -107t-130 -312t130 -308t320 -102t317 107q128 109 128 311zM677 487q-233 1 -375 137t-142 351t149 351q150 136 379 136q230 0 376 -130t146 -365q0 -139 -68 -273t-233 -329l-313 -365h-92l551 651l-2 2
q-143 -166 -376 -166z" />
    <glyph glyph-name="zero.slsh.tf" 
d="M715 47q131 1 231 61q174 105 238 374q27 114 26 235q0 293 -129 479l-667 -1034q121 -115 301 -115zM715 1386q-107 0 -193 -40q-155 -73 -228 -249t-75 -380q0 -326 154 -510l669 1038q-127 141 -327 141zM715 1462q147 0 262 -66q203 -117 279 -414q34 -128 34 -265
q0 -278 -133 -503q-67 -110 -181 -176t-261 -67q-147 0 -262 67q-204 119 -280 414q-34 128 -34 265q0 278 133 503q66 110 181 176t262 66z" />
    <glyph glyph-name="zero.slsh.numr" horiz-adv-x="796" 
d="M403 680q135 0 218 101q81 101 81 257t-94 256l-366 -565q72 -49 161 -49zM403 1382q-135 0 -217 -102t-82 -257t95 -255l364 565q-72 49 -160 49zM403 1450q169 0 271 -121t102 -298t-102 -298t-270 -121t-270 121q-101 121 -101 298t101 298t269 121z" />
    <glyph glyph-name="zero.slsh.dnom" horiz-adv-x="796" 
d="M403 39q135 0 218 101q81 101 81 257t-94 256l-366 -565q72 -49 161 -49zM403 741q-135 0 -217 -102t-82 -257t95 -255l364 565q-72 49 -160 49zM403 809q169 0 271 -121t102 -298t-102 -298t-270 -121t-270 121q-101 121 -101 298t101 298t269 121z" />
    <glyph glyph-name="zero.slsh.sups" horiz-adv-x="796" 
d="M403 1012q135 0 218 101q81 101 81 257t-94 256l-366 -565q72 -49 161 -49zM403 1714q-135 0 -217 -102t-82 -257t95 -255l364 565q-72 49 -160 49zM403 1782q169 0 271 -121t102 -298t-102 -298t-270 -121t-270 121q-101 121 -101 298t101 298t269 121z" />
    <glyph glyph-name="zero.dnom" horiz-adv-x="806" 
d="M403 51q135 -1 217 101t82 249t-81 250t-217 103t-218 -102t-82 -250q0 -146 82 -248t217 -103zM403 -16q-168 0 -269 120t-101 296q0 177 101 299t269 122q169 0 271 -122t102 -299t-102 -297q-103 -119 -271 -119z" />
    <glyph glyph-name="one.dnom" horiz-adv-x="411" 
d="M256 532q0 103 10 173v14h-2l-33 -43q-14 -18 -28 -31l-125 -123l-45 43l246 240h47v-805h-70v532z" />
    <glyph glyph-name="two.dnom" horiz-adv-x="661" 
d="M332 63h280v-63h-553v53l367 289q127 98 127 231q0 72 -61 127q-60 56 -156 56t-150 -45t-80 -142l-65 17q61 236 299 235q117 0 199 -76t82 -182q0 -145 -160 -270q-70 -55 -157 -123t-171 -117l2 -2q74 12 197 12z" />
    <glyph glyph-name="three.dnom" horiz-adv-x="649" 
d="M352 821q124 0 191 -61q67 -62 67 -146t-55 -137t-133 -57v-2q82 -6 138 -58t56 -148q0 -94 -78 -162t-196 -66q-119 0 -205 70t-96 184l68 16q2 -92 67 -150q66 -57 166 -57t154 52q53 52 53 126q1 74 -59 118t-154 44h-86v59h86q94 0 150 46t56 109t-49 109
q-50 46 -155 46q-178 -1 -217 -183l-64 19q15 104 93 166t202 63z" />
    <glyph glyph-name="four.dnom" horiz-adv-x="675" 
d="M453 283v202l2 102l6 97q0 10 2 16v5h-2l-23 -33q-83 -112 -127 -162l-110 -125q-24 -35 -90 -86l-19 -16l2 -2h8l58 2h293zM633 283v-64h-113v-219h-67v219h-433v51l455 535h45v-522h113z" />
    <glyph glyph-name="five.dnom" horiz-adv-x="653" 
d="M328 47q98 0 157 58q59 57 59 153t-58 156q-60 60 -147 59q-87 0 -139 -33t-73 -73l-57 14l65 424h432v-66h-377l-26 -157q-9 -62 -17 -82t-11 -32l-7 -24l2 -2q68 92 196 92t207 -77q78 -78 78 -198t-80 -198q-80 -77 -202 -77t-198 66q-75 66 -91 181l65 17
q10 -92 68 -146q56 -54 154 -55z" />
    <glyph glyph-name="six.dnom" horiz-adv-x="663" 
d="M328 479q-102 0 -166 -59q-64 -60 -64 -156t64 -156t164 -61q100 1 162 61t67 156q2 96 -61 156q-64 60 -166 59zM332 541q127 0 209 -78t82 -200t-83 -201q-83 -78 -212 -78t-212 78t-83 205q0 126 94 255l217 283h78l-301 -373l2 -2l16 19q15 18 21 22t23 19
q17 14 29 20t40 18q27 12 80 13z" />
    <glyph glyph-name="seven.dnom" horiz-adv-x="589" 
d="M20 739v66h560v-51l-430 -754h-70l381 670q20 36 55 71l-2 2h-6l-75 -4h-413z" />
    <glyph glyph-name="eight.dnom" horiz-adv-x="657" 
d="M98 219q0 -76 64 -124t166 -48t167 48t65 124t-65 123t-167 47t-166 -47t-64 -123zM328 760q-88 0 -144 -41t-55 -109q0 -68 55 -110q54 -42 144 -41q90 0 144 42q54 41 54 109t-55 109t-143 41zM33 211q0 96 61 149t127 64v2q-45 6 -100 57t-55 135t73 144q74 59 189 59
q116 0 190 -59q74 -60 74 -144t-56 -135t-100 -57v-2q66 -10 127 -64t61 -149q0 -96 -82 -162q-83 -65 -213 -65t-213 66t-83 161z" />
    <glyph glyph-name="nine.dnom" horiz-adv-x="653" 
d="M555 540q1 96 -63 156t-164 60t-164 -60t-66 -155t62 -155t166 -60t166 59q63 59 63 155zM314 262q-120 0 -200 78q-81 78 -81 201t82 201t211 79q129 0 213 -79q84 -80 84 -212t-152 -315l-184 -215h-80l311 358l-2 2q-82 -98 -202 -98z" />
    <glyph glyph-name="zero.numr" horiz-adv-x="806" 
d="M403 680q135 0 218 101q81 101 81 249t-81 250t-217 102t-218 -102t-82 -248t82 -250q82 -102 217 -102zM403 612q-168 0 -269 121t-101 298t101 298t269 121q169 0 271 -121t102 -298t-102 -298t-271 -121z" />
    <glyph glyph-name="one.numr" horiz-adv-x="411" 
d="M256 1161q0 104 10 174v15h-2l-33 -43q-14 -18 -28 -33l-125 -123l-45 43l246 240h47v-805h-70v532z" />
    <glyph glyph-name="two.numr" horiz-adv-x="661" 
d="M332 694h280v-65h-553v53l367 289q127 103 127 232q0 71 -61 126q-60 55 -156 55t-150 -45t-80 -141l-65 19q61 233 299 233q119 0 200 -75t81 -183q0 -141 -160 -270q-136 -106 -190 -148t-138 -90l2 -2q74 12 197 12z" />
    <glyph glyph-name="three.numr" horiz-adv-x="659" 
d="M352 1450q124 0 191 -61t67 -145t-54 -136q-54 -53 -134 -59v-2q82 -5 138 -57t56 -148t-78 -162q-78 -68 -196 -68q-119 0 -205 71t-96 185l68 15q2 -92 67 -149q66 -56 166 -56t154 51q53 51 53 126q1 75 -59 119t-154 44h-86v57h86q94 0 150 46q56 45 56 109t-49 110
q-50 46 -155 46q-178 0 -217 -184l-64 21q15 103 93 165t202 62z" />
    <glyph glyph-name="four.numr" horiz-adv-x="675" 
d="M453 913v203l2 101l6 96q0 10 2 16v6h-2l-23 -32q-76 -103 -127 -164l-110 -125q-30 -37 -90 -84l-19 -17l2 -2h8l58 2h293zM633 913v-63h-113v-221h-67v221h-433v49l455 535h45v-521h113z" />
    <glyph glyph-name="five.numr" horiz-adv-x="653" 
d="M330 612q-122 0 -197 68q-76 68 -92 180l65 19q10 -93 68 -147t154 -54q98 0 157 58t59 154t-58 153q-60 59 -147 59t-139 -33t-73 -72l-57 15l65 422h432v-64h-374l-29 -160q-10 -63 -18 -81q-7 -19 -11 -33l-6 -21l2 -2q27 35 79 63t120 27q125 0 204 -77
q78 -78 78 -198t-80 -198t-202 -78z" />
    <glyph glyph-name="six.numr" horiz-adv-x="663" 
d="M328 1108q-102 0 -166 -59t-64 -155t64 -156t164 -60t162 59t66 155t-60 156t-166 60zM332 1171q127 -1 209 -79t82 -200t-83 -201t-212 -79t-212 79t-83 207t94 253l217 283h78l-301 -373l2 -2q2 2 11 13t13 15l15 15q10 10 17 15t19 15q48 40 134 39z" />
    <glyph glyph-name="seven.numr" horiz-adv-x="589" 
d="M20 1370v64h560v-50l-430 -755h-70l381 671q21 38 55 72l-2 2h-6l-75 -4h-413z" />
    <glyph glyph-name="eight.numr" horiz-adv-x="657" 
d="M98 849q0 -77 64 -125t166 -48q104 0 168 48q63 48 63 124t-64 123q-65 47 -167 47t-166 -46t-64 -123zM329 1389q-89 0 -145 -40t-55 -108q0 -68 55 -111q54 -44 144 -42t144 44t54 110t-54 107q-54 40 -143 40zM33 843q0 95 61 148t127 62v2q-47 10 -101 60t-54 134
t73 143q74 58 189 58q116 0 190 -58t74 -142t-54 -135q-54 -50 -102 -60v-2q66 -7 127 -61t61 -150t-82 -162q-83 -66 -213 -66t-213 67t-83 162z" />
    <glyph glyph-name="nine.numr" horiz-adv-x="653" 
d="M328 1386q-100 0 -162 -60t-66 -156t60 -156t166 -60t166 60t63 155q0 96 -63 157q-64 60 -164 60zM316 893q-120 0 -202 78q-81 77 -81 199t82 201t211 79t213 -79t84 -212t-152 -315l-184 -215h-80l311 360l-2 2q-80 -98 -200 -98z" />
    <glyph glyph-name="dollar.tf" 
d="M299 1092q0 -96 69 -149q38 -30 79 -57t124 -50t155 -41t167 -48q96 -30 143 -65t92 -78q86 -82 86 -241q0 -158 -132 -271t-349 -121v-155h-74v157q-205 14 -329 131t-137 285l75 21q10 -156 127 -260t312 -104t311 91q116 92 117 238q0 90 -31 131q-31 40 -51 64
t-88 60q-106 56 -320 107q-207 57 -289 111q-137 92 -137 247t123 255t317 110v158h74v-156q180 -10 305 -112t152 -267l-76 -20q-22 149 -136 237t-285 88t-283 -78q-112 -79 -111 -218z" />
    <glyph glyph-name="percent.tf" 
d="M987 51q135 -1 217 101t82 249t-82 249t-217 104q-135 0 -217 -102t-82 -250q0 -146 82 -248t217 -103zM442 680q135 0 217 101t82 249t-82 250t-217 102t-217 -102t-82 -248t82 -250q82 -102 217 -102zM442 612q-168 0 -269 121t-101 298t101 298t269 121t270 -121
t103 -299q0 -43 -6 -80l266 484h74l-377 -682q92 70 215 69q168 0 270 -122q103 -122 103 -299t-102 -297q-102 -119 -271 -119q-168 0 -269 120t-102 297q0 39 7 76l-265 -477h-71l377 686q-92 -74 -222 -74z" />
    <glyph glyph-name="cent.tf" 
d="M776 -29h-69v226q-207 12 -348 160q-140 147 -140 363t139 364t347 161v217h71v-217q139 -8 251 -79t173 -187l-67 -21q-57 104 -159 162t-233 58q-195 0 -319 -126t-125 -330q0 -204 125 -329t319 -125q137 0 246 64t162 180l65 -20q-57 -129 -174 -208t-264 -87v-226z
" />
    <glyph glyph-name="sterling.tf" 
d="M1253 76v-76h-1044v76q137 28 174 142t18 337l-14 156h-160v71h154l-21 230q-16 194 97 320t287 130q376 9 477 -379l-74 -20q-94 336 -395 326q-154 -3 -242 -109t-74 -268l21 -230h530v-71h-524l14 -156q39 -401 -133 -483l2 -2h14l175 4l183 2h535z" />
    <glyph glyph-name="currency.tf" 
d="M1167 700q0 190 -131 322t-320 133q-188 0 -320 -133q-132 -134 -132 -322t131 -321t321 -133t320 132q131 132 131 322zM1243 710q0 -198 -121 -345l156 -158l-49 -47l-154 155q-155 -143 -359 -143t-362 143l-155 -155l-47 47l157 160q-121 143 -121 341t142 353
l-150 147l49 47l152 -149q145 123 334 123t336 -121l149 147l47 -47l-147 -147q143 -153 143 -351z" />
    <glyph glyph-name="yen.tf" 
d="M1180 823v-69h-414l-12 -15v-75h426v-70h-426v-594h-78v594h-408v70h408v75l-12 15h-396v69h340l-491 611h94l410 -510q13 -16 37 -47t40 -52l17 -20h2l16 18q16 19 41 53t37 48l408 510h94l-492 -611h359z" />
    <glyph glyph-name="Euro.tf" 
d="M770 -25q-254 0 -440 173t-224 448h-108v68h102q-2 18 -2 51t2 49h-102v67h108q34 275 222 451t442 176q190 0 346 -99t244 -272l-80 -22q-80 149 -213 233t-297 84q-225 0 -389 -152t-197 -399h615v-67h-621q-2 -16 -2 -49t2 -51h621v-68h-615q37 -242 200 -394
t386 -151q176 -1 318 95t217 264l75 -23q-82 -193 -244 -303t-366 -109z" />
    <glyph glyph-name="uni20B9.tf" 
d="M1214 1434v-70h-296q92 -53 151 -139h145v-70h-108q31 -74 31 -160q0 -184 -132 -305t-333 -121h-103l498 -569h-106l-496 569v76h207q166 0 274 98t109 252q0 80 -37 160h-656v70h611q-115 139 -301 139h-310v70h852z" />
    <glyph glyph-name="colon.case" horiz-adv-x="389" 
d="M266 388q0 -30 -21 -50t-51 -21q-30 0 -51 22q-20 21 -20 51t21 50q22 20 52 20t50 -21t20 -51zM194 973q-30 0 -51 21q-20 22 -20 52t21 50q22 20 52 20t50 -22t20 -51q0 -30 -21 -50t-51 -20z" />
    <glyph glyph-name="semicolon.case" horiz-adv-x="415" 
d="M143 400q0 32 23 52q22 20 54 19q32 0 54 -26t21 -66q0 -154 -123 -295h-49q96 106 96 233l17 11h-17q-29 -4 -53 18t-23 54zM212 991q-30 0 -50 22q-20 21 -20 51t21 50t51 20t50 -21t20 -51t-20 -50q-22 -20 -52 -21z" />
    <glyph glyph-name="apple" horiz-adv-x="1679" 
d="M1094 -2q-12 0 -13 12q0 12 13 13q12 -1 12 -13t-12 -12zM1229 54q-1 -34 23 -34t24 34t-24 34t-23 -34zM1348 0h-31l8 109h39l16 -70l19 70h39l4 -109h-29v82l-22 -80h-21l-22 80v-82zM948 109h31l14 -74l13 74h30l13 -74l14 74h29l-27 -109h-33l-12 72l-14 -72h-31z
M897 43v-20h43v-23h-74v109h74v-23h-43v-20h39v-23h-39zM850 0h-31v109h31v-109zM707 109h32l19 -80l20 80h31l-35 -109h-33zM631 68h37v41h28v-109h-28v43h-37v-43h-31v109h31v-41zM506 86v23h84v-23h-29v-86h-26v86h-29zM399 109h37l33 -66v66h27v-109h-31l-39 72v-72h-27
v109zM354 0h-28v41l-35 68h35l14 -48l16 48h33l-35 -68v-41zM1309 53q1 -55 -55 -55t-56 55q0 25 15 41t40 16t41 -16t15 -41zM1108 51q0 58 59 60q20 0 29 -5l-8 -24q-6 6 -19 6q-31 0 -31 -34t31 -34q12 0 19 7l6 -25q-12 -4 -29 -4q-57 0 -57 53zM249 88q-11 0 -11 -7
t26 -16t25 -32q0 -35 -49 -35q-20 0 -33 6l8 25q25 -9 34 -9t9 11q0 6 -24 14t-25 31q0 35 43 35q23 0 31 -7l-7 -24q-16 8 -27 8zM838 524l184 -162q55 -10 272 -14q-6 193 -14 266l-166 187l166 182q6 43 14 272q-199 -4 -270 -14l-186 -166l-181 166q-72 10 -272 14
q8 -231 14 -272l162 -182l-162 -183q-6 -43 -14 -270q219 4 270 14zM1382 168q-354 0 -425 26q-22 7 -37 23l-82 68l-78 -68q-16 -16 -39 -24q-72 -25 -426 -25h-88v88q0 361 24 427q8 22 23 38l70 80l-70 78q-14 18 -23 40q-24 66 -24 424v91h88q345 0 430 -26
q23 -7 39 -22l78 -71l35 33l41 34q18 16 40 24q65 26 424 28h91v-91q0 -351 -27 -425q-8 -23 -25 -39l-45 -54l-22 -24l73 -86q11 -19 19 -39q25 -67 27 -416v-92h-91z" />
    </font>
</defs>
</svg>
