<?xml version="1.0" standalone="no"?>
<!DOCTYPE svg PUBLIC "-//W3C//DTD SVG 1.1//EN" "http://www.w3.org/Graphics/SVG/1.1/DTD/svg11.dtd" >
<svg xmlns="http://www.w3.org/2000/svg">
<metadata>
Created by FontPrep 20130207 at Wed Oct 22 20:18:45 2014
 By James Azzopardi
Copyright (c) 2011 by Jan Tonellato. All rights reserved.
</metadata>
<defs>
<font id="fcad973783aee7d2d36dd8df78ee20e8" horiz-adv-x='1024' >
  <font-face 
    font-family="Novecentowide-Bold"
    font-weight="700"
    font-stretch="expanded"
    units-per-em="2048"
    panose-1="0 0 8 5 0 0 0 0 0 0"
    ascent="1741"
    descent="-307"
    x-height="1434"
    cap-height="1434"
    bbox="-492 -596 2668 2001"
    underline-thickness="311"
    underline-position="-111"
    unicode-range="U+0020-25CA"
  />
<missing-glyph horiz-adv-x="1343" 
d="M334 1434h676q76 0 125 -48t49 -126v-1086q0 -82 -48 -128t-126 -46h-676q-78 0 -126 46t-48 128v1086q0 80 49 127t125 47zM207 197q0 -156 151 -156h627q78 0 115 36t37 120v262l-230 -230l-235 238l-234 -234l-229 230l233 233l-235 234v-733zM1137 1237q0 84 -41 120
t-131 36h-586q-96 0 -134 -35t-38 -121v-307l229 229l236 -233l237 237l228 -227v301zM1137 459v473l-236 -236z" />
    <glyph glyph-name=".notdef" horiz-adv-x="1343" 
d="M334 1434h676q76 0 125 -48t49 -126v-1086q0 -82 -48 -128t-126 -46h-676q-78 0 -126 46t-48 128v1086q0 80 49 127t125 47zM207 197q0 -156 151 -156h627q78 0 115 36t37 120v262l-230 -230l-235 238l-234 -234l-229 230l233 233l-235 234v-733zM1137 1237q0 84 -41 120
t-131 36h-586q-96 0 -134 -35t-38 -121v-307l229 229l236 -233l237 237l228 -227v301zM1137 459v473l-236 -236z" />
    <glyph glyph-name=".null" horiz-adv-x="0" 
 />
    <glyph glyph-name="nonmarkingreturn" horiz-adv-x="681" 
 />
    <glyph glyph-name="space" unicode=" " horiz-adv-x="512" 
 />
    <glyph glyph-name="exclam" unicode="!" horiz-adv-x="663" 
d="M160 0v322h344v-322h-344zM160 440v994h344v-994h-344z" />
    <glyph glyph-name="quotedbl" unicode="&#x22;" horiz-adv-x="1234" 
d="M754 989v445h321v-445h-321zM160 989v445h321v-445h-321z" />
    <glyph glyph-name="numbersign" unicode="#" horiz-adv-x="1910" 
d="M1006 569l145 285h-279l-139 -285h273zM1692 854h-199l-139 -285h196l-155 -299h-189l-133 -270h-358l139 270h-268l-133 -270h-359l139 270h-178l158 299h172l145 285h-178l158 299h174l143 281h330l-137 -281h285l143 281h330l-138 -281h207z" />
    <glyph glyph-name="dollar" unicode="$" horiz-adv-x="1257" 
d="M618 1165q-78 1 -122 -31t-43 -75q0 -43 26 -65q62 -51 214 -103t229 -92q185 -94 247 -218q37 -73 37 -161q0 -160 -103 -275t-282 -155v-174h-344v176q-317 78 -436 414l330 88q31 -90 107 -154t174 -64t144 36t46 80t-16 70q-32 50 -218 113q-185 63 -255 100
q-70 36 -131 84q-124 99 -124 277q0 139 104 253t275 155v174h344v-182q137 -42 235 -140t138 -227l-332 -90q-25 90 -95 138q-71 48 -149 48z" />
    <glyph glyph-name="percent" unicode="%" horiz-adv-x="1802" 
d="M1419 211q61 0 100 53q37 53 37 132t-37 132q-37 54 -99 54t-101 -54t-39 -133q0 -78 39 -131t100 -53zM1418 -16q-161 0 -262 116t-101 295q0 180 101 297t262 117t262 -117q102 -117 102 -297q0 -179 -102 -295t-262 -116zM385 852q61 0 99 53t38 132t-38 132t-99 53
t-100 -54t-39 -132t39 -131t100 -53zM276 0l1029 1434h221l-1028 -1434h-222zM384 625q-161 -1 -262 115t-102 296q0 180 102 297t262 117q161 0 262 -117q102 -117 102 -297t-102 -296t-262 -115z" />
    <glyph glyph-name="ampersand" unicode="&#x26;" horiz-adv-x="1452" 
d="M877 498v102h-254q-107 0 -161 -45t-54 -119t60 -122t171 -48q238 0 238 232zM1452 868v-268h-252v-121q0 -219 -143 -363t-413 -144t-421 124q-152 125 -151 330q0 119 81 207t197 104v2q-96 10 -178 90t-82 209q0 184 139 304t361 120t360 -108q137 -108 185 -295
l-289 -80q-35 102 -86 148q-50 47 -140 47t-131 -46t-41 -110q0 -62 51 -106q50 -44 148 -44h805z" />
    <glyph glyph-name="quotesingle" unicode="'" horiz-adv-x="641" 
d="M160 989v445h321v-445h-321z" />
    <glyph glyph-name="parenleft" unicode="(" horiz-adv-x="806" 
d="M416 700q0 -280 81 -442t273 -219l-86 -328q-195 59 -322 176q-292 269 -290 813q2 550 290 814q51 46 137 96t185 80l86 -328q-194 -57 -274 -220t-80 -442z" />
    <glyph glyph-name="parenright" unicode=")" horiz-adv-x="806" 
d="M391 700q0 278 -81 442q-81 163 -273 220l86 328q195 -59 321 -177q294 -270 292 -813q-2 -659 -409 -899q-94 -55 -204 -90l-86 328q193 57 273 220t81 441z" />
    <glyph glyph-name="asterisk" unicode="*" horiz-adv-x="1040" 
d="M412 1434h213v-203l190 63l66 -204l-195 -56l125 -162l-174 -129l-117 172l-114 -172l-177 127l125 164l-194 56l65 204l187 -63v203z" />
    <glyph glyph-name="plus" unicode="+" 
d="M1180 866v-280h-314v-330h-299v330h-315v280h313v330h299v-330h316z" />
    <glyph glyph-name="comma" unicode="," horiz-adv-x="567" 
d="M123 142q0 62 47 110q47 47 115 47q67 0 113 -50t46 -137t-66 -195t-167 -187h-125q52 33 104 118t52 134l30 8l-30 4q-47 6 -83 46t-36 102z" />
    <glyph glyph-name="hyphen" unicode="-" horiz-adv-x="1247" 
d="M160 866h927v-280h-927v280z" />
    <glyph glyph-name="period" unicode="." horiz-adv-x="567" 
d="M284 297q68 0 114 -47t46 -114t-46 -114t-114 -47q-67 -1 -114 47t-47 114t47 114q47 47 114 47z" />
    <glyph glyph-name="slash" unicode="/" horiz-adv-x="1062" 
d="M0 0l733 1434h330l-705 -1434h-358z" />
    <glyph glyph-name="zero" unicode="0" horiz-adv-x="1468" 
d="M732 1122q-154 0 -228 -110t-74 -295q0 -184 75 -295t227 -111t230 112q77 112 76 294q0 182 -76 294q-77 111 -230 111zM733 1462q301 0 482 -214t181 -531t-180 -531q-182 -214 -483 -215q-301 0 -481 214q-180 213 -180 531t180 532t481 214z" />
    <glyph glyph-name="one" unicode="1" horiz-adv-x="962" 
d="M803 1434v-1434h-344v690l4 203l2 37h-2l-17 -19q-16 -18 -45 -51t-55 -59l-63 -64l-211 203l491 494h240z" />
    <glyph glyph-name="two" unicode="2" horiz-adv-x="1253" 
d="M1171 322v-322h-1052v281q98 86 294 260q197 174 303 266t105 188q0 68 -50 116t-132 48q-149 0 -215 -180l-318 84q52 178 194 289q142 110 361 110t363 -133t145 -330q0 -197 -118 -320q-107 -113 -318 -254q-98 -65 -131 -89l-35 -23l2 -2h9q10 2 26 2l158 6l166 3
h243z" />
    <glyph glyph-name="three" unicode="3" horiz-adv-x="1257" 
d="M1159 1038q0 -129 -90 -211t-184 -86v-2q121 0 211 -86t90 -227q0 -199 -153 -327t-374 -128t-383 113t-204 285l311 86q27 -80 89 -128t150 -48t147 45q58 46 58 118t-56 115t-150 43h-121v268h121q90 0 136 41t46 106t-50 105t-132 39q-157 0 -220 -180l-307 82
q48 184 194 293q146 108 370 108t362 -120q139 -120 139 -304z" />
    <glyph glyph-name="four" unicode="4" horiz-adv-x="1347" 
d="M788 557v135l3 129l4 133v13h-2l-23 -29q-87 -117 -117 -152l-192 -229v-2l90 2h237zM1266 557v-299h-154v-258h-324v258h-716v258l757 918h283v-877h154z" />
    <glyph glyph-name="five" unicode="5" horiz-adv-x="1269" 
d="M651 940q229 0 383 -133t154 -342t-154 -351t-372 -142t-366 106t-190 256l316 84q57 -152 215 -152q88 0 145 58t58 149q0 89 -60 147t-143 58q-145 0 -184 -103l-297 82l129 777h815v-322h-568l-45 -203l2 -2q53 33 162 33z" />
    <glyph glyph-name="six" unicode="6" horiz-adv-x="1239" 
d="M646 272q100 0 162 58t62 149t-63 147t-163 56t-162 -57t-62 -149t64 -148t162 -56zM715 963q221 -1 352 -147t131 -360t-161 -350t-401 -135q-240 -1 -403 137q-162 138 -161 369q0 156 62 285t196 305l276 367h371l-381 -508l2 -2q49 39 117 39z" />
    <glyph glyph-name="seven" unicode="7" horiz-adv-x="1179" 
d="M61 1112v322h1098v-199l-692 -1235h-369l437 768q113 195 182 297l33 49l-2 2h-15l-141 -4h-531z" />
    <glyph glyph-name="eight" unicode="8" horiz-adv-x="1241" 
d="M399 417q1 -79 63 -129t160 -50t158 51q62 51 62 130t-62 129t-160 50q-97 0 -159 -51t-62 -130zM813 1062q0 66 -54 110t-139 44q-84 0 -138 -44q-54 -45 -54 -112t54 -109t138 -42t139 43q54 43 54 110zM1169 408q0 -184 -155 -311q-156 -126 -394 -126t-393 126
q-156 126 -155 311q0 137 86 232t196 122v2q-68 12 -142 101t-75 210q0 166 137 277q136 110 346 110t347 -110t137 -277q0 -121 -74 -210t-143 -101v-2q111 -27 197 -123t85 -231z" />
    <glyph glyph-name="nine" unicode="9" horiz-adv-x="1241" 
d="M597 1159q-99 0 -161 -57q-62 -56 -63 -148q0 -92 63 -148q62 -56 162 -56t163 58q62 58 62 148t-63 147q-64 56 -163 56zM530 471q-236 0 -362 142q-126 143 -127 361q0 218 160 353q161 135 403 135t404 -137t161 -369q0 -281 -239 -561l-338 -395h-391l442 504l-2 2
q-29 -35 -111 -35z" />
    <glyph glyph-name="colon" unicode=":" horiz-adv-x="567" 
d="M284 297q68 0 114 -47t46 -114t-46 -114t-114 -47q-67 -1 -114 47t-47 114t47 114q47 47 114 47zM284 891q68 0 114 -47t46 -114t-46 -114t-114 -47q-67 0 -114 47t-47 114t47 114t114 47z" />
    <glyph glyph-name="semicolon" unicode=";" horiz-adv-x="604" 
d="M160 142q0 62 47 110q47 47 115 47t114 -50t45 -137t-67 -195t-166 -187h-125q53 33 105 118t51 134l30 8l-30 4q-47 6 -83 46t-36 102zM321 891q67 0 113 -47t47 -114q-1 -67 -47 -114t-113 -47t-114 47t-47 114t47 114t114 47z" />
    <glyph glyph-name="less" unicode="&#x3c;" 
d="M1167 250h-389l-540 502l540 499h389l-510 -499z" />
    <glyph glyph-name="equal" unicode="=" 
d="M252 600h928v-281h-928v281zM252 1092h928v-281h-928v281z" />
    <glyph glyph-name="greater" unicode="&#x3e;" 
d="M262 250l510 502l-510 499h389l541 -499l-541 -502h-389z" />
    <glyph glyph-name="question" unicode="?" horiz-adv-x="1208" 
d="M422 0v322h344v-322h-344zM422 440v267q250 151 303 199t53 106t-42 103q-42 46 -134 46t-149 -43t-93 -139l-288 80q47 186 193 295q146 108 370 108q225 0 363 -120t138 -299t-116 -285q-64 -57 -110 -86t-144 -86v-146h-344z" />
    <glyph glyph-name="at" unicode="@" horiz-adv-x="1644" 
d="M794 879q-60 0 -112 -46q-52 -47 -49 -137q2 -90 51 -134q48 -44 106 -44t107 40t51 124v16q2 100 -46 140t-108 41zM948 1073h217v-498q0 -143 88 -143q119 0 119 262t-156 422q-156 162 -395 162t-395 -162t-156 -408t156 -406q156 -161 393 -161q105 0 185 23t112 43
t35 20l149 -73q0 -19 -57 -59q-57 -41 -110 -65q-124 -57 -314 -59q-327 0 -537 208t-210 532q0 323 211 537t537 214t540 -214q213 -214 213 -541q0 -159 -76 -288q-39 -67 -111 -108t-160 -41t-156 49q-69 49 -85 117l-2 2q-23 -57 -93 -106t-149 -49q-162 1 -261 113
t-99 297t104 299t277 114q72 0 121 -36t63 -64h2v67z" />
    <glyph glyph-name="A" unicode="A" horiz-adv-x="1472" 
d="M563 526h346l-102 279q-37 108 -57 178l-13 33h-2l-10 -33q-11 -35 -29 -89t-30 -89zM1102 0l-82 225h-567l-82 -225h-371l573 1434h326l574 -1434h-371z" />
    <glyph glyph-name="B" unicode="B" horiz-adv-x="1351" 
d="M504 289h239q84 0 136 45q51 45 51 118q0 72 -52 116t-135 44h-239v-323zM504 874h207q71 0 115 38t44 98t-45 97q-45 38 -114 38h-207v-271zM160 1434h622q188 0 312 -110t123 -269q-1 -96 -55 -176t-124 -105v-2q102 -29 177 -129t75 -209q0 -190 -129 -312t-383 -122
h-618v1434z" />
    <glyph glyph-name="C" unicode="C" horiz-adv-x="1544" 
d="M815 1122q-176 0 -280 -112q-105 -112 -105 -294q0 -181 108 -291t277 -110q103 0 193 47t135 121l348 -90q-90 -193 -271 -307t-405 -115q-311 0 -527 212t-216 534q0 321 216 533t527 212q209 0 382 -104t269 -277l-350 -92q-49 61 -132 97t-169 36z" />
    <glyph glyph-name="D" unicode="D" horiz-adv-x="1599" 
d="M504 322h282q160 0 272 105t112 283t-112 290t-272 112h-282v-790zM160 1434h626q314 0 528 -203t214 -519t-214 -514t-528 -198h-626v1434z" />
    <glyph glyph-name="E" unicode="E" horiz-adv-x="1357" 
d="M504 322h710v-322h-1054v1434h1042v-322h-698v-235h547v-302h-547v-253z" />
    <glyph glyph-name="F" unicode="F" horiz-adv-x="1253" 
d="M1182 1112h-678v-281h526v-309h-526v-522h-344v1434h1022v-322z" />
    <glyph glyph-name="G" unicode="G" horiz-adv-x="1622" 
d="M1206 117h-2q-61 -66 -171 -106t-218 -40q-311 0 -527 212t-216 534q0 321 216 533t527 212q207 0 380 -102t271 -279l-350 -92q-49 61 -132 97t-169 36q-176 0 -280 -112q-105 -112 -105 -296q0 -183 114 -295t292 -112q285 0 370 225v3h-377v276h670v-811h-295v85l2 24
v8z" />
    <glyph glyph-name="H" unicode="H" horiz-adv-x="1544" 
d="M1040 1434h344v-1434h-344v557h-536v-557h-344v1434h344v-555h536v555z" />
    <glyph glyph-name="I" unicode="I" horiz-adv-x="663" 
d="M504 0h-344v1434h344v-1434z" />
    <glyph glyph-name="J" unicode="J" horiz-adv-x="1390" 
d="M913 1434h344v-797q0 -315 -177 -491t-468 -175q-202 1 -364 103t-228 264l338 90q78 -135 254 -135q141 0 222 89q80 89 79 243v809z" />
    <glyph glyph-name="K" unicode="K" horiz-adv-x="1501" 
d="M504 1200q0 -238 -4 -282v-25h2l14 16q16 15 64 65t110 113l348 347h422l-608 -611l612 -823h-405l-434 596l-121 -121v-475h-344v1434h344v-234z" />
    <glyph glyph-name="L" unicode="L" horiz-adv-x="1222" 
d="M504 322h678v-322h-1022v1434h344v-1112z" />
    <glyph glyph-name="M" unicode="M" horiz-adv-x="1751" 
d="M1591 1434v-1434h-338v350q0 304 9 457l2 51h-2l-29 -47q-95 -150 -100 -170l-168 -287h-179l-168 287q-2 4 -35 62q-34 58 -63 108l-31 47h-2l2 -51q9 -230 9 -457v-350h-338v1434h323l269 -435q46 -74 76 -127l46 -79h3l47 79q31 53 75 127l269 435h323z" />
    <glyph glyph-name="N" unicode="N" horiz-adv-x="1605" 
d="M1102 1434h344v-1434h-324l-293 399q-55 76 -138 193t-134 188l-53 72h-2v-70l2 -465v-317h-344v1434h323l305 -410q39 -53 118 -163t138 -189l58 -80h2v75l-2 439v328z" />
    <glyph glyph-name="O" unicode="O" horiz-adv-x="1632" 
d="M430 718q0 -181 106 -294t280 -113q173 0 280 113q106 113 106 294t-106 293q-106 111 -280 111t-280 -112t-106 -292zM72 717q0 321 216 533t528 212t528 -212t217 -534q0 -322 -216 -533q-217 -212 -529 -212t-528 212t-216 534z" />
    <glyph glyph-name="P" unicode="P" horiz-adv-x="1333" 
d="M504 772h196q100 0 157 45q56 45 56 125t-56 125t-157 45h-196v-340zM160 1434h547q265 0 415 -131t150 -361t-151 -360q-151 -131 -414 -131h-203v-451h-344v1434z" />
    <glyph glyph-name="Q" unicode="Q" horiz-adv-x="1632" 
d="M816 311q173 0 280 113q106 113 106 294t-106 293q-106 111 -280 111t-280 -112t-106 -292q0 -181 106 -294t280 -113zM639 -270v262q-248 55 -408 254t-159 471q0 321 216 533t528 212t528 -212t217 -533q0 -274 -162 -473t-416 -254v-260h-344z" />
    <glyph glyph-name="R" unicode="R" horiz-adv-x="1392" 
d="M504 1112v-340h237q86 0 129 51t43 119t-43 119t-129 51h-237zM504 467v-467h-344v1434h534q268 0 423 -134t155 -358q0 -293 -258 -414l317 -528h-385l-266 467h-176z" />
    <glyph glyph-name="S" unicode="S" horiz-adv-x="1257" 
d="M618 1165q-78 1 -122 -31t-43 -75q0 -43 26 -65q62 -51 214 -103t229 -92q185 -94 247 -218q37 -73 37 -161q0 -197 -154 -323t-390 -126t-393 115t-228 320l330 88q31 -90 107 -154t174 -64t144 36t46 80t-16 70q-32 50 -218 113q-185 63 -255 100q-70 36 -131 84
q-124 99 -124 274t154 302t370 127t368 -110t204 -283l-332 -90q-25 90 -95 138q-71 48 -149 48z" />
    <glyph glyph-name="T" unicode="T" horiz-adv-x="1251" 
d="M20 1434h1211v-322h-436v-1112h-344v1112h-431v322z" />
    <glyph glyph-name="U" unicode="U" horiz-adv-x="1531" 
d="M1055 1434h344v-797q0 -317 -172 -491t-462 -175q-290 0 -461 174t-171 492v797h344v-789q0 -352 289 -352t289 352v789z" />
    <glyph glyph-name="V" unicode="V" horiz-adv-x="1472" 
d="M1096 1434h377l-551 -1434h-371l-551 1434h377l276 -791q26 -72 74 -233l8 -29h2l8 29q26 100 74 233z" />
    <glyph glyph-name="W" unicode="W" horiz-adv-x="2152" 
d="M1745 1434h366l-434 -1434h-323l-213 662q-26 79 -58 212l-6 29h-2l-6 -29q-24 -116 -57 -212l-213 -662h-324l-434 1434h367l176 -676q14 -58 28 -118t23 -87l6 -27h2l8 27q21 78 66 205l198 540h322l199 -540q45 -134 65 -205l8 -27h2l9 27q25 110 49 205z" />
    <glyph glyph-name="X" unicode="X" horiz-adv-x="1411" 
d="M707 438h-2l-23 -39q-24 -39 -50 -85t-34 -58l-168 -256h-410l480 731l-459 703h414l172 -281q8 -14 27 -50t34 -63l17 -28h2l14 28q16 27 36 63q19 36 27 50l172 281h414l-459 -703l480 -731h-410l-168 256q-22 33 -84 143z" />
    <glyph glyph-name="Y" unicode="Y" horiz-adv-x="1480" 
d="M911 0h-342v635l-549 799h386l260 -383q70 -104 73 -105h2q4 0 74 105l260 383h385l-549 -799v-635z" />
    <glyph glyph-name="Z" unicode="Z" horiz-adv-x="1458" 
d="M143 1112v322h1192v-322l-610 -657q-27 -29 -61 -64t-54 -55l-18 -19l2 -2h6l79 4l88 3h568v-322h-1212v322l639 671q32 35 110 105l23 18l-2 2h-16q-28 -4 -90 -4l-117 -2h-527z" />
    <glyph glyph-name="bracketleft" unicode="[" horiz-adv-x="798" 
d="M504 1432v-1422h274v-321h-618v2064h618v-321h-274z" />
    <glyph glyph-name="backslash" unicode="\" horiz-adv-x="1062" 
d="M1063 0h-358l-705 1434h330z" />
    <glyph glyph-name="bracketright" unicode="]" horiz-adv-x="798" 
d="M295 1432h-275v321h619v-2064h-619v321h275v1422z" />
    <glyph glyph-name="asciicircum" unicode="^" horiz-adv-x="1277" 
d="M1118 977l-147 -129l-332 342l-332 -342l-147 129l479 481z" />
    <glyph glyph-name="underscore" unicode="_" horiz-adv-x="1603" 
d="M160 0h1284v-272h-1284v272z" />
    <glyph glyph-name="grave" unicode="`" horiz-adv-x="657" 
d="M500 1489l-508 211l117 231l489 -262z" />
    <glyph glyph-name="a" unicode="a" horiz-adv-x="1472" 
d="M563 526h346l-102 279q-37 108 -57 178l-13 33h-2l-10 -33q-11 -35 -29 -89t-30 -89zM1102 0l-82 225h-567l-82 -225h-371l573 1434h326l574 -1434h-371z" />
    <glyph glyph-name="b" unicode="b" horiz-adv-x="1351" 
d="M504 289h239q84 0 136 45q51 45 51 118q0 72 -52 116t-135 44h-239v-323zM504 874h207q71 0 115 38t44 98t-45 97q-45 38 -114 38h-207v-271zM160 1434h622q188 0 312 -110t123 -269q-1 -96 -55 -176t-124 -105v-2q102 -29 177 -129t75 -209q0 -190 -129 -312t-383 -122
h-618v1434z" />
    <glyph glyph-name="c" unicode="c" horiz-adv-x="1544" 
d="M815 1122q-176 0 -280 -112q-105 -112 -105 -294q0 -181 108 -291t277 -110q103 0 193 47t135 121l348 -90q-90 -193 -271 -307t-405 -115q-311 0 -527 212t-216 534q0 321 216 533t527 212q209 0 382 -104t269 -277l-350 -92q-49 61 -132 97t-169 36z" />
    <glyph glyph-name="d" unicode="d" horiz-adv-x="1599" 
d="M504 322h282q160 0 272 105t112 283t-112 290t-272 112h-282v-790zM160 1434h626q314 0 528 -203t214 -519t-214 -514t-528 -198h-626v1434z" />
    <glyph glyph-name="e" unicode="e" horiz-adv-x="1357" 
d="M504 322h710v-322h-1054v1434h1042v-322h-698v-235h547v-302h-547v-253z" />
    <glyph glyph-name="f" unicode="f" horiz-adv-x="1253" 
d="M1182 1112h-678v-281h526v-309h-526v-522h-344v1434h1022v-322z" />
    <glyph glyph-name="g" unicode="g" horiz-adv-x="1622" 
d="M1206 117h-2q-61 -66 -171 -106t-218 -40q-311 0 -527 212t-216 534q0 321 216 533t527 212q207 0 380 -102t271 -279l-350 -92q-49 61 -132 97t-169 36q-176 0 -280 -112q-105 -112 -105 -296q0 -183 114 -295t292 -112q285 0 370 225v3h-377v276h670v-811h-295v85l2 24
v8z" />
    <glyph glyph-name="h" unicode="h" horiz-adv-x="1544" 
d="M1040 1434h344v-1434h-344v557h-536v-557h-344v1434h344v-555h536v555z" />
    <glyph glyph-name="i" unicode="i" horiz-adv-x="663" 
d="M504 0h-344v1434h344v-1434z" />
    <glyph glyph-name="j" unicode="j" horiz-adv-x="1390" 
d="M913 1434h344v-797q0 -315 -177 -491t-468 -175q-202 1 -364 103t-228 264l338 90q78 -135 254 -135q141 0 222 89q80 89 79 243v809z" />
    <glyph glyph-name="k" unicode="k" horiz-adv-x="1501" 
d="M504 1200q0 -238 -4 -282v-25h2l14 16q16 15 64 65t110 113l348 347h422l-608 -611l612 -823h-405l-434 596l-121 -121v-475h-344v1434h344v-234z" />
    <glyph glyph-name="l" unicode="l" horiz-adv-x="1222" 
d="M504 322h678v-322h-1022v1434h344v-1112z" />
    <glyph glyph-name="m" unicode="m" horiz-adv-x="1751" 
d="M1591 1434v-1434h-338v350q0 304 9 457l2 51h-2l-29 -47q-95 -150 -100 -170l-168 -287h-179l-168 287q-2 4 -35 62q-34 58 -63 108l-31 47h-2l2 -51q9 -230 9 -457v-350h-338v1434h323l269 -435q46 -74 76 -127l46 -79h3l47 79q31 53 75 127l269 435h323z" />
    <glyph glyph-name="n" unicode="n" horiz-adv-x="1605" 
d="M1102 1434h344v-1434h-324l-293 399q-55 76 -138 193t-134 188l-53 72h-2v-70l2 -465v-317h-344v1434h323l305 -410q39 -53 118 -163t138 -189l58 -80h2v75l-2 439v328z" />
    <glyph glyph-name="o" unicode="o" horiz-adv-x="1632" 
d="M430 718q0 -181 106 -294t280 -113q173 0 280 113q106 113 106 294t-106 293q-106 111 -280 111t-280 -112t-106 -292zM72 717q0 321 216 533t528 212t528 -212t217 -534q0 -322 -216 -533q-217 -212 -529 -212t-528 212t-216 534z" />
    <glyph glyph-name="p" unicode="p" horiz-adv-x="1333" 
d="M504 772h196q100 0 157 45q56 45 56 125t-56 125t-157 45h-196v-340zM160 1434h547q265 0 415 -131t150 -361t-151 -360q-151 -131 -414 -131h-203v-451h-344v1434z" />
    <glyph glyph-name="q" unicode="q" horiz-adv-x="1632" 
d="M816 311q173 0 280 113q106 113 106 294t-106 293q-106 111 -280 111t-280 -112t-106 -292q0 -181 106 -294t280 -113zM639 -270v262q-248 55 -408 254t-159 471q0 321 216 533t528 212t528 -212t217 -533q0 -274 -162 -473t-416 -254v-260h-344z" />
    <glyph glyph-name="r" unicode="r" horiz-adv-x="1392" 
d="M504 1112v-340h237q86 0 129 51t43 119t-43 119t-129 51h-237zM504 467v-467h-344v1434h534q268 0 423 -134t155 -358q0 -293 -258 -414l317 -528h-385l-266 467h-176z" />
    <glyph glyph-name="s" unicode="s" horiz-adv-x="1257" 
d="M618 1165q-78 1 -122 -31t-43 -75q0 -43 26 -65q62 -51 214 -103t229 -92q185 -94 247 -218q37 -73 37 -161q0 -197 -154 -323t-390 -126t-393 115t-228 320l330 88q31 -90 107 -154t174 -64t144 36t46 80t-16 70q-32 50 -218 113q-185 63 -255 100q-70 36 -131 84
q-124 99 -124 274t154 302t370 127t368 -110t204 -283l-332 -90q-25 90 -95 138q-71 48 -149 48z" />
    <glyph glyph-name="t" unicode="t" horiz-adv-x="1251" 
d="M20 1434h1211v-322h-436v-1112h-344v1112h-431v322z" />
    <glyph glyph-name="u" unicode="u" horiz-adv-x="1531" 
d="M1055 1434h344v-797q0 -317 -172 -491t-462 -175q-290 0 -461 174t-171 492v797h344v-789q0 -352 289 -352t289 352v789z" />
    <glyph glyph-name="v" unicode="v" horiz-adv-x="1472" 
d="M1096 1434h377l-551 -1434h-371l-551 1434h377l276 -791q26 -72 74 -233l8 -29h2l8 29q26 100 74 233z" />
    <glyph glyph-name="w" unicode="w" horiz-adv-x="2152" 
d="M1745 1434h366l-434 -1434h-323l-213 662q-26 79 -58 212l-6 29h-2l-6 -29q-24 -116 -57 -212l-213 -662h-324l-434 1434h367l176 -676q14 -58 28 -118t23 -87l6 -27h2l8 27q21 78 66 205l198 540h322l199 -540q45 -134 65 -205l8 -27h2l9 27q25 110 49 205z" />
    <glyph glyph-name="x" unicode="x" horiz-adv-x="1411" 
d="M707 438h-2l-23 -39q-24 -39 -50 -85t-34 -58l-168 -256h-410l480 731l-459 703h414l172 -281q8 -14 27 -50t34 -63l17 -28h2l14 28q16 27 36 63q19 36 27 50l172 281h414l-459 -703l480 -731h-410l-168 256q-22 33 -84 143z" />
    <glyph glyph-name="y" unicode="y" horiz-adv-x="1480" 
d="M911 0h-342v635l-549 799h386l260 -383q70 -104 73 -105h2q4 0 74 105l260 383h385l-549 -799v-635z" />
    <glyph glyph-name="z" unicode="z" horiz-adv-x="1458" 
d="M143 1112v322h1192v-322l-610 -657q-27 -29 -61 -64t-54 -55l-18 -19l2 -2h6l79 4l88 3h568v-322h-1212v322l639 671q32 35 110 105l23 18l-2 2h-16q-28 -4 -90 -4l-117 -2h-527z" />
    <glyph glyph-name="braceleft" unicode="{" horiz-adv-x="929" 
d="M291 406q0 250 -131 315q18 6 43 30q86 82 88 285v197q0 253 160 409t458 156v-321q-127 0 -201 -62t-73 -244v-120q0 -211 -67 -293l-44 -37l39 -30q72 -98 72 -300v-121q0 -182 74 -243t200 -62v-321q-299 0 -459 156t-159 409v197z" />
    <glyph glyph-name="bar" unicode="|" horiz-adv-x="589" 
d="M430 -152h-270v1739h270v-1739z" />
    <glyph glyph-name="braceright" unicode="}" horiz-adv-x="929" 
d="M639 406v-197q0 -254 -160 -410t-459 -155v321q127 -1 201 61t74 244v121q0 208 66 293q27 37 45 37q-16 0 -45 37q-66 89 -66 293v120q0 181 -74 243t-201 63v321q299 0 459 -156t160 -409v-197q0 -204 86 -283q27 -26 45 -32q-131 -65 -131 -315z" />
    <glyph glyph-name="asciitilde" unicode="~" 
d="M983 512q-115 0 -261 63t-190 64q-78 0 -108 -38t-29 -87l-280 76q14 104 76 176q108 125 290 125q103 1 251 -63t207 -64t89 39t29 88l284 -76q-20 -155 -131 -229t-227 -74z" />
    <glyph glyph-name="exclamdown" unicode="&#xa1;" horiz-adv-x="663" 
d="M160 993h344v-993h-344v993zM160 1434h344v-322h-344v322z" />
    <glyph glyph-name="cent" unicode="&#xa2;" horiz-adv-x="1191" 
d="M756 -29h-275v199q-178 48 -294 194t-115 343q0 197 115 343q116 146 294 193v219h275v-217q123 -29 220 -109t148 -192l-301 -78q-75 98 -193 98t-180 -68q-62 -70 -62 -190t62 -189t173 -68q152 0 215 131l301 -82q-47 -123 -149 -211t-234 -119v-197z" />
    <glyph glyph-name="sterling" unicode="&#xa3;" horiz-adv-x="1331" 
d="M1253 322v-322h-1093v322q82 14 108 59t17 143l-2 31h-123v268h96l-16 172q-18 183 129 323t364 144t391 -164q100 -96 136 -239l-289 -80q-66 188 -232 180q-78 -4 -121 -61t-34 -135l14 -140h385v-268h-360q18 -178 -64 -242l2 -2h8q8 2 23 2l138 6l142 3h381z" />
    <glyph glyph-name="currency" unicode="&#xa4;" horiz-adv-x="1372" 
d="M686 954q-106 0 -180 -72t-74 -186q0 -112 73 -184t181 -72t180 72q74 72 74 186t-74 184q-74 72 -180 72zM1245 691q0 -165 -92 -306l135 -135l-168 -168l-137 137q-137 -88 -300 -88t-296 86l-135 -135l-168 168l133 133q-92 145 -92 307t86 301l-139 139l168 168
l139 -139q133 92 301 92t313 -92l140 139l167 -168l-141 -141q86 -133 86 -298z" />
    <glyph glyph-name="yen" unicode="&#xa5;" horiz-adv-x="1478" 
d="M1319 969v-221h-330l-43 -62h373v-221h-408v-465h-342v465h-405v221h371l-43 62h-328v221h176l-320 465h386l260 -383q70 -104 73 -105h2q4 0 74 105l260 383h385l-319 -465h178z" />
    <glyph glyph-name="brokenbar" unicode="&#xa6;" horiz-adv-x="589" 
d="M160 442h270v-594h-270v594zM160 1587h270v-573h-270v573z" />
    <glyph glyph-name="section" unicode="&#xa7;" horiz-adv-x="1091" 
d="M373 756q0 -31 15 -52t65 -38q51 -17 103 -29t79 -21q104 20 104 103q0 53 -58 79q-17 7 -27 12t-36 11q-24 6 -36 10q-12 5 -42 11t-42 10q-55 -8 -90 -36t-35 -60zM393 1182q0 -51 51 -74q51 -22 118 -39q239 -58 365 -147q101 -72 101 -189q0 -147 -164 -203
q176 -94 176 -237t-132 -233t-334 -89q-202 0 -336 79q-133 79 -197 220l278 74q29 -66 95 -111t150 -45t123 26q40 26 40 58t-18 55t-79 43q-62 22 -126 40t-116 34q-221 70 -275 173q-27 50 -27 114q0 133 162 209q-154 80 -154 223q0 121 130 210t310 89t307 -74
q128 -74 175 -190l-275 -74q-23 62 -81 96t-126 34t-104 -22q-37 -22 -37 -50z" />
    <glyph glyph-name="dieresis" unicode="&#xa8;" horiz-adv-x="911" 
d="M696 1573q-63 0 -107 43t-44 106q0 64 44 108t107 44q64 0 108 -44t44 -108t-44 -106q-44 -43 -108 -43zM145 1874q63 0 107 -44t43 -108q1 -64 -43 -106q-44 -43 -108 -43t-108 43t-44 106q0 64 45 108t108 44z" />
    <glyph glyph-name="copyright" unicode="&#xa9;" horiz-adv-x="1632" 
d="M801 373q-125 0 -227 99q-101 98 -101 246t101 248t243 99q101 0 187 -54t126 -143l-192 -51q-45 57 -116 57q-72 0 -110 -40t-38 -114q0 -73 39 -115t104 -42q90 0 129 78l193 -53q-35 -96 -124 -156t-214 -59zM815 1229q-215 -1 -353 -145t-138 -366t138 -366t353 -143
q215 0 354 143q139 144 139 366t-138 366q-140 144 -355 145zM72 717q0 321 216 533t528 212t528 -212t217 -534q0 -322 -216 -533q-217 -212 -529 -212t-528 212t-216 534z" />
    <glyph glyph-name="ordfeminine" unicode="&#xaa;" horiz-adv-x="753" 
d="M41 436v205h672v-205h-672zM377 1262h-2l-4 -25q-11 -61 -37 -160l-15 -49h111l-14 49q-21 77 -35 160zM276 874l-30 -106h-205l240 682h190l242 -682h-209l-31 106h-197z" />
    <glyph glyph-name="guillemotleft" unicode="&#xab;" horiz-adv-x="1624" 
d="M1278 1200l184 -186l-307 -293l309 -293l-188 -188l-481 481zM643 1200l184 -186l-307 -293l309 -293l-188 -188l-481 481z" />
    <glyph glyph-name="softhyphen" unicode="&#xad;" horiz-adv-x="1247" 
d="M160 866h927v-280h-927v280z" />
    <glyph glyph-name="registered" unicode="&#xae;" horiz-adv-x="1632" 
d="M750 891v-133h94q29 0 47 19t18 46t-18 47t-47 21h-94zM565 1059h254q127 -1 200 -63t73 -167q0 -135 -119 -190l155 -260h-196l-125 229h-57v-229h-185v680zM815 209q215 0 354 143q139 144 139 366t-138 366q-140 144 -355 144t-353 -144t-138 -366t138 -366t353 -143z
M72 717q0 321 216 533t528 212t528 -212t217 -534q0 -322 -216 -533q-217 -212 -529 -212t-528 212t-216 534z" />
    <glyph glyph-name="macron" unicode="&#xaf;" horiz-adv-x="679" 
d="M-49 1628h711v-264h-711v264z" />
    <glyph glyph-name="degree" unicode="&#xb0;" horiz-adv-x="690" 
d="M348 1362q45 0 78 33t33 77t-33 78q-33 33 -78 33t-78 -33q-32 -33 -32 -78q0 -46 32 -78t78 -32zM346 1161q-127 0 -218 91t-91 216t91 216q91 92 218 92t217 -90t90 -218t-90 -217q-90 -90 -217 -90z" />
    <glyph glyph-name="plusminus" unicode="&#xb1;" 
d="M252 -18v280h928v-280h-928zM864 866h316v-280h-314v-187h-299v187h-315v280h313v330h299v-330z" />
    <glyph glyph-name="twosuperior" unicode="&#xb2;" horiz-adv-x="696" 
d="M551 1163h90v-190h-594v143l250 215q6 6 51 43t63 73q19 35 19 64t-23 50q-24 20 -60 20q-37 0 -63 -25q-26 -24 -33 -40t-18 -50l-192 52q23 102 107 183q85 81 208 81t206 -79t83 -199t-121 -224q-54 -51 -194 -131l2 -2h6q6 2 16 3t54 7q43 6 143 6z" />
    <glyph glyph-name="threesuperior" unicode="&#xb3;" horiz-adv-x="716" 
d="M651 1558q0 -88 -52 -133t-105 -45v-2q70 -2 120 -45t52 -121q0 -112 -86 -184t-210 -72t-216 66t-113 166l186 51q23 -98 135 -98q43 -1 70 21t27 59t-29 59t-74 23h-71v151h71q37 0 63 23q25 23 25 53t-24 49q-25 20 -60 20q-95 0 -124 -100l-183 49q23 106 107 170
t208 64t204 -68q79 -68 79 -156z" />
    <glyph glyph-name="acute" unicode="&#xb4;" horiz-adv-x="657" 
d="M481 1931l117 -231l-508 -211l-98 180z" />
    <glyph glyph-name="paragraph" unicode="&#xb6;" horiz-adv-x="1685" 
d="M594 1434h932v-1434h-344v1110h-172v-1110h-324v573h-92q-246 0 -384 114t-138 317q0 202 138 316t384 114z" />
    <glyph glyph-name="periodcentered" unicode="&#xb7;" horiz-adv-x="567" 
d="M284 891q68 0 114 -47t46 -114t-46 -114t-114 -47q-67 0 -114 47t-47 114t47 114t114 47z" />
    <glyph glyph-name="cedilla" unicode="&#xb8;" horiz-adv-x="550" 
d="M492 -341q0 -108 -70 -163t-176 -55h-254l69 178h185q59 0 59 45t-59 49h-219l98 287h186l-43 -115q90 2 157 -58t67 -168z" />
    <glyph glyph-name="onesuperior" unicode="&#xb9;" horiz-adv-x="542" 
d="M262 1337q0 88 12 142v8h-2q-2 0 -15 -21t-58 -61l-41 -37l-138 121l306 276h155v-792h-219v364z" />
    <glyph glyph-name="ordmasculine" unicode="&#xba;" horiz-adv-x="743" 
d="M41 641h661v-205h-661v205zM372 1262q-64 0 -106 -43t-41 -112q0 -69 41 -112t106 -43q66 0 106 43t40 112t-41 112t-105 43zM20 1106q0 152 102 252t248 100q148 0 250 -100t103 -251q0 -151 -102 -251q-101 -100 -249 -100t-250 99t-102 251z" />
    <glyph glyph-name="guillemotright" unicode="&#xbb;" horiz-adv-x="1624" 
d="M981 1200l483 -479l-481 -481l-188 188l309 293l-307 293zM346 1200l483 -479l-481 -481l-188 188l309 293l-307 293z" />
    <glyph glyph-name="onequarter" unicode="&#xbc;" horiz-adv-x="1525" 
d="M1196 311v178l2 13h-2l-18 -24q-8 -11 -17 -19l-94 -109q-8 -8 -17 -19t-16 -17q-4 -3 -6 -5v-2l2 -2l6 2h13l67 4h80zM1475 315v-180h-84v-135h-195v135h-387v150l414 508h168v-478h84zM1161 1434h221l-1028 -1434h-221zM262 1006q0 87 12 141v8h-2q-2 0 -15 -21
t-58 -61l-41 -37l-138 121l306 277h155v-793h-219v365z" />
    <glyph glyph-name="onehalf" unicode="&#xbd;" horiz-adv-x="1587" 
d="M1442 190h90v-190h-594v143l250 215q23 23 38 34q95 70 95 143q0 33 -24 53q-23 20 -59 20t-62 -24t-34 -41q-7 -16 -18 -49l-192 51q23 102 107 183q85 81 208 81t206 -79q83 -78 83 -198t-121 -225q-54 -51 -194 -131l2 -2l6 2q11 0 33 3q81 11 180 11zM133 0
l1028 1434h221l-1028 -1434h-221zM262 1006q0 87 12 141v8h-2q-2 0 -15 -21t-58 -61l-41 -37l-138 121l306 277h155v-793h-219v365z" />
    <glyph glyph-name="threequarters" unicode="&#xbe;" horiz-adv-x="1648" 
d="M1319 311v178l2 13h-2l-19 -24q-8 -11 -16 -19l-94 -109q-8 -8 -17 -19t-16 -17q-4 -3 -6 -5v-2l2 -2l6 2h12l68 4h80zM1597 315v-180h-84v-135h-194v135h-387v150l414 508h167v-478h84zM1284 1434h221l-1028 -1434h-221zM494 1049v-2q70 -1 120 -45t52 -121
q0 -111 -86 -184t-210 -73t-216 66t-113 166l186 51q23 -98 135 -98q43 -1 70 21t27 59t-29 59t-74 23h-71v151h71q37 0 63 23q25 23 25 53t-24 49q-25 20 -60 21q-96 0 -124 -101l-183 50q23 106 107 169q84 64 208 64t204 -68q79 -68 79 -156t-52 -132t-105 -45z" />
    <glyph glyph-name="questiondown" unicode="&#xbf;" horiz-adv-x="1208" 
d="M786 993v-266q-250 -152 -303 -200t-53 -105q0 -58 42 -104t134 -46t150 43q57 43 92 140l289 -80q-47 -186 -193 -295t-370 -109t-363 120t-139 304q0 88 26 156q27 68 90 125q64 57 110 86t144 86v145h344zM786 1434v-322h-344v322h344z" />
    <glyph glyph-name="Agrave" unicode="&#xc0;" horiz-adv-x="1472" 
d="M563 526h346l-102 279q-37 108 -57 178l-13 33h-2l-10 -33q-11 -35 -29 -89t-30 -89zM1102 0l-82 225h-567l-82 -225h-371l573 1434h326l574 -1434h-371zM942 1669l-98 -180l-508 211l117 231z" />
    <glyph glyph-name="Aacute" unicode="&#xc1;" horiz-adv-x="1472" 
d="M563 526h346l-102 279q-37 108 -57 178l-13 33h-2l-10 -33q-11 -35 -29 -89t-30 -89zM1102 0l-82 225h-567l-82 -225h-371l573 1434h326l574 -1434h-371zM1085 1700l-507 -211l-99 180l490 262z" />
    <glyph glyph-name="Acircumflex" unicode="&#xc2;" horiz-adv-x="1472" 
d="M563 526h346l-102 279q-37 108 -57 178l-13 33h-2l-10 -33q-11 -35 -29 -89t-30 -89zM1102 0l-82 225h-567l-82 -225h-371l573 1434h326l574 -1434h-371zM727 1683l-238 -196l-165 168l403 342l401 -342l-163 -168z" />
    <glyph glyph-name="Atilde" unicode="&#xc3;" horiz-adv-x="1472" 
d="M563 526h346l-102 279q-37 108 -57 178l-13 33h-2l-10 -33q-11 -35 -29 -89t-30 -89zM1102 0l-82 225h-567l-82 -225h-371l573 1434h326l574 -1434h-371zM971 1835h266q0 -139 -91 -229t-233 -90q-82 0 -180 63t-138 63t-66 -24t-25 -64h-266q0 140 91 230t232 90
q68 0 128 -32q59 -32 107 -64t86 -31t64 25t25 63z" />
    <glyph glyph-name="Adieresis" unicode="&#xc4;" horiz-adv-x="1472" 
d="M563 526h346l-102 279q-37 108 -57 178l-13 33h-2l-10 -33q-11 -35 -29 -89t-30 -89zM1102 0l-82 225h-567l-82 -225h-371l573 1434h326l574 -1434h-371zM1004 1573q-63 0 -108 43q-44 43 -44 106q0 64 44 108t108 44t107 -44q44 -44 44 -108t-44 -106q-44 -43 -107 -43z
M452 1573q-64 0 -109 43q-44 43 -44 106q0 64 45 108q44 44 108 44t107 -44t43 -108t-43 -106q-43 -43 -107 -43z" />
    <glyph glyph-name="Aring" unicode="&#xc5;" horiz-adv-x="1472" 
d="M563 526h346l-102 279q-37 108 -57 178l-13 33h-2l-10 -33q-11 -35 -29 -89t-30 -89zM848 1698q0 46 -33 78t-78 32t-78 -32t-33 -78q0 -45 34 -78q32 -33 77 -33t78 33t33 78zM426 1694q0 125 91 216t218 91t217 -90t90 -217q0 -168 -143 -260l574 -1434h-371l-82 225
h-567l-82 -225h-371l573 1434q-67 40 -107 110t-40 150z" />
    <glyph glyph-name="AE" unicode="&#xc6;" horiz-adv-x="2097" 
d="M909 526v586h-137l-18 -47q-16 -49 -45 -131t-45 -129l-101 -279h346zM1243 322h711v-322h-1045v225h-454l-82 -225h-373l575 1434h1367v-322h-699v-235h547v-302h-547v-253z" />
    <glyph glyph-name="Ccedilla" unicode="&#xc7;" horiz-adv-x="1544" 
d="M836 -559h-254l69 178h185q59 0 59 45t-59 49h-220l91 267q-274 37 -455 241q-180 205 -180 511t216 518t527 212q209 0 382 -103t269 -278l-350 -92q-49 61 -132 97t-169 36q-176 0 -280 -112q-105 -112 -105 -294q0 -181 108 -291t277 -110q103 0 193 47t135 121
l348 -90q-82 -176 -242 -288t-358 -130l-33 -90q90 2 157 -58t67 -168t-70 -163t-176 -55z" />
    <glyph glyph-name="Egrave" unicode="&#xc8;" horiz-adv-x="1357" 
d="M504 322h710v-322h-1054v1434h1042v-322h-698v-235h547v-302h-547v-253zM920 1669l-99 -180l-508 211l117 231z" />
    <glyph glyph-name="Eacute" unicode="&#xc9;" horiz-adv-x="1357" 
d="M504 322h710v-322h-1054v1434h1042v-322h-698v-235h547v-302h-547v-253zM1063 1700l-508 -211l-98 180l489 262z" />
    <glyph glyph-name="Ecircumflex" unicode="&#xca;" horiz-adv-x="1357" 
d="M504 322h710v-322h-1054v1434h1042v-322h-698v-235h547v-302h-547v-253zM705 1683l-238 -196l-166 168l404 342l401 -342l-164 -168z" />
    <glyph glyph-name="Edieresis" unicode="&#xcb;" horiz-adv-x="1357" 
d="M504 322h710v-322h-1054v1434h1042v-322h-698v-235h547v-302h-547v-253zM981 1573q-63 0 -108 43q-44 43 -44 106q0 64 44 108q43 44 107 44t108 -44t45 -108q-1 -64 -45 -106q-44 -43 -107 -43zM430 1874q62 0 106 -44t44 -108t-44 -106q-44 -43 -108 -43t-108 43
t-44 106q0 64 46 108t108 44z" />
    <glyph glyph-name="Igrave" unicode="&#xcc;" horiz-adv-x="663" 
d="M504 0h-344v1434h344v-1434zM440 1489l-508 211l117 231l490 -262z" />
    <glyph glyph-name="Iacute" unicode="&#xcd;" horiz-adv-x="663" 
d="M504 0h-344v1434h344v-1434zM565 1931l117 -231l-508 -211l-98 180z" />
    <glyph glyph-name="Icircumflex" unicode="&#xce;" horiz-adv-x="663" 
d="M504 0h-344v1434h344v-1434zM-80 1655l404 342l401 -342l-164 -168l-237 196l-238 -196z" />
    <glyph glyph-name="Idieresis" unicode="&#xcf;" horiz-adv-x="663" 
d="M504 0h-344v1434h344v-1434zM600 1573q-63 0 -107 43t-44 106q0 64 44 108t107 44q64 0 108 -44t44 -108t-44 -106q-44 -43 -108 -43zM49 1874q63 0 107 -44t43 -108q1 -64 -43 -106q-44 -43 -108 -43t-108 43t-44 106q0 64 45 108t108 44z" />
    <glyph glyph-name="Eth" unicode="&#xd0;" horiz-adv-x="1628" 
d="M532 322h283q159 0 271 105t112 283t-112 290t-271 112h-283v-233h220v-310h-220v-247zM188 1434h627q313 0 527 -203t214 -519t-214 -514t-527 -198h-627v569h-116v310h116v555z" />
    <glyph glyph-name="Ntilde" unicode="&#xd1;" horiz-adv-x="1605" 
d="M1102 1434h344v-1434h-324l-293 399q-55 76 -138 193t-134 188l-53 72h-2v-70l2 -465v-317h-344v1434h323l305 -410q39 -53 118 -163t138 -189l58 -80h2v75l-2 439v328zM1038 1835h267q1 -139 -91 -229t-233 -90q-66 0 -125 32t-108 63q-93 61 -151 7q-26 -25 -26 -64
h-266q0 140 91 230t233 90q86 0 183 -64t136 -63q38 1 64 25t26 63z" />
    <glyph glyph-name="Ograve" unicode="&#xd2;" horiz-adv-x="1632" 
d="M430 718q0 -181 106 -294t280 -113q173 0 280 113q106 113 106 294t-106 293q-106 111 -280 111t-280 -112t-106 -292zM72 717q0 321 216 533t528 212t528 -212t217 -534q0 -322 -216 -533q-217 -212 -529 -212t-528 212t-216 534zM934 1489l-508 211l117 231l489 -262z
" />
    <glyph glyph-name="Oacute" unicode="&#xd3;" horiz-adv-x="1632" 
d="M430 718q0 -181 106 -294t280 -113q173 0 280 113q106 113 106 294t-106 293q-106 111 -280 111t-280 -112t-106 -292zM72 717q0 321 216 533t528 212t528 -212t217 -534q0 -322 -216 -533q-217 -212 -529 -212t-528 212t-216 534zM1059 1931l117 -231l-508 -211l-99 180
z" />
    <glyph glyph-name="Ocircumflex" unicode="&#xd4;" horiz-adv-x="1632" 
d="M430 718q0 -181 106 -294t280 -113q173 0 280 113q106 113 106 294t-106 293q-106 111 -280 111t-280 -112t-106 -292zM72 717q0 321 216 533t528 212t528 -212t217 -534q0 -322 -216 -533q-217 -212 -529 -212t-528 212t-216 534zM414 1655l403 342l402 -342l-164 -168
l-238 196l-237 -196z" />
    <glyph glyph-name="Otilde" unicode="&#xd5;" horiz-adv-x="1632" 
d="M430 718q0 -181 106 -294t280 -113q173 0 280 113q106 113 106 294t-106 293q-106 111 -280 111t-280 -112t-106 -292zM72 717q0 321 216 533t528 212t528 -212t217 -534q0 -322 -216 -533q-217 -212 -529 -212t-528 212t-216 534zM1061 1835h266q0 -139 -91 -229
t-232 -90q-82 0 -180 63t-139 63q-39 0 -65 -24t-26 -64h-266q0 140 91 230t232 90q68 0 128 -32q59 -32 107 -64t86 -31t64 25t25 63z" />
    <glyph glyph-name="Odieresis" unicode="&#xd6;" horiz-adv-x="1632" 
d="M430 718q0 -181 106 -294t280 -113q173 0 280 113q106 113 106 294t-106 293q-106 111 -280 111t-280 -112t-106 -292zM72 717q0 321 216 533t528 212t528 -212t217 -534q0 -322 -216 -533q-217 -212 -529 -212t-528 212t-216 534zM1094 1573q-63 0 -108 43
q-44 43 -44 106q0 64 44 108t108 44t107 -44q44 -44 44 -108t-44 -106q-44 -43 -107 -43zM542 1573q-64 0 -109 43q-44 43 -44 106q0 64 45 108q44 44 108 44t107 -44t43 -108t-43 -106q-43 -43 -107 -43z" />
    <glyph glyph-name="multiply" unicode="&#xd7;" 
d="M952 1182l230 -230l-238 -237l236 -238l-230 -229l-235 237l-234 -233l-229 229l233 234l-235 233l229 230l236 -234z" />
    <glyph glyph-name="Oslash" unicode="&#xd8;" horiz-adv-x="1632" 
d="M1202 717q0 104 -39 194l-450 -587q49 -12 102 -13q174 0 281 113q106 113 106 293zM815 1122q-174 0 -279 -112t-106 -293q0 -113 45 -203l455 594q-49 14 -115 14zM815 -29q-168 0 -319 68l-76 -98l-244 184l76 98q-180 207 -180 511t216 516t527 212q176 0 330 -73
l76 98l243 -182l-78 -101q174 -207 175 -487q0 -322 -216 -534t-530 -212z" />
    <glyph glyph-name="Ugrave" unicode="&#xd9;" horiz-adv-x="1531" 
d="M1055 1434h344v-797q0 -317 -172 -491t-462 -175q-290 0 -461 174t-171 492v797h344v-789q0 -352 289 -352t289 352v789zM877 1489l-508 211l116 231l490 -262z" />
    <glyph glyph-name="Uacute" unicode="&#xda;" horiz-adv-x="1531" 
d="M1055 1434h344v-797q0 -317 -172 -491t-462 -175q-290 0 -461 174t-171 492v797h344v-789q0 -352 289 -352t289 352v789zM1001 1931l117 -231l-508 -211l-98 180z" />
    <glyph glyph-name="Ucircumflex" unicode="&#xdb;" horiz-adv-x="1531" 
d="M1055 1434h344v-797q0 -317 -172 -491t-462 -175q-290 0 -461 174t-171 492v797h344v-789q0 -352 289 -352t289 352v789zM356 1655l404 342l401 -342l-164 -168l-237 196l-238 -196z" />
    <glyph glyph-name="Udieresis" unicode="&#xdc;" horiz-adv-x="1531" 
d="M1055 1434h344v-797q0 -317 -172 -491t-462 -175q-290 0 -461 174t-171 492v797h344v-789q0 -352 289 -352t289 352v789zM1036 1573q-63 0 -107 43t-44 106q0 64 44 108t107 44q64 0 108 -44t44 -108t-44 -106q-44 -43 -108 -43zM485 1874q63 0 107 -44t43 -108
q1 -64 -43 -106q-44 -43 -108 -43t-108 43t-44 106q0 64 45 108t108 44z" />
    <glyph glyph-name="Yacute" unicode="&#xdd;" horiz-adv-x="1480" 
d="M911 0h-342v635l-549 799h386l260 -383q70 -104 73 -105h2q4 0 74 105l260 383h385l-549 -799v-635zM973 1931l117 -231l-508 -211l-99 180z" />
    <glyph glyph-name="Thorn" unicode="&#xde;" horiz-adv-x="1331" 
d="M504 547h215q92 0 142 47t50 123t-50 123t-142 47h-215v-340zM504 1208h207q251 0 405 -138t154 -353t-155 -353t-404 -139h-207v-225h-344v1434h344v-226z" />
    <glyph glyph-name="germandbls" unicode="&#xdf;" horiz-adv-x="1699" 
d="M504 1112v-1112h-344v1434h1331l-201 -381q-100 -193 -100 -203l2 -2h8q172 0 300 -123t128 -307t-139 -315q-139 -132 -371 -132q-162 0 -294 76t-206 201l326 88q70 -74 159 -74t134 49t45 122t-50 120t-140 47h-234v248l60 127q12 25 29 63t28 56l8 20l-2 2h-8l-88 -4
h-381z" />
    <glyph glyph-name="agrave" unicode="&#xe0;" horiz-adv-x="1472" 
d="M563 526h346l-102 279q-37 108 -57 178l-13 33h-2l-10 -33q-11 -35 -29 -89t-30 -89zM1102 0l-82 225h-567l-82 -225h-371l573 1434h326l574 -1434h-371zM942 1669l-98 -180l-508 211l117 231z" />
    <glyph glyph-name="aacute" unicode="&#xe1;" horiz-adv-x="1472" 
d="M563 526h346l-102 279q-37 108 -57 178l-13 33h-2l-10 -33q-11 -35 -29 -89t-30 -89zM1102 0l-82 225h-567l-82 -225h-371l573 1434h326l574 -1434h-371zM1085 1700l-507 -211l-99 180l490 262z" />
    <glyph glyph-name="acircumflex" unicode="&#xe2;" horiz-adv-x="1472" 
d="M563 526h346l-102 279q-37 108 -57 178l-13 33h-2l-10 -33q-11 -35 -29 -89t-30 -89zM1102 0l-82 225h-567l-82 -225h-371l573 1434h326l574 -1434h-371zM727 1683l-238 -196l-165 168l403 342l401 -342l-163 -168z" />
    <glyph glyph-name="atilde" unicode="&#xe3;" horiz-adv-x="1472" 
d="M563 526h346l-102 279q-37 108 -57 178l-13 33h-2l-10 -33q-11 -35 -29 -89t-30 -89zM1102 0l-82 225h-567l-82 -225h-371l573 1434h326l574 -1434h-371zM971 1835h266q0 -139 -91 -229t-233 -90q-82 0 -180 63t-138 63t-66 -24t-25 -64h-266q0 140 91 230t232 90
q68 0 128 -32q59 -32 107 -64t86 -31t64 25t25 63z" />
    <glyph glyph-name="adieresis" unicode="&#xe4;" horiz-adv-x="1472" 
d="M563 526h346l-102 279q-37 108 -57 178l-13 33h-2l-10 -33q-11 -35 -29 -89t-30 -89zM1102 0l-82 225h-567l-82 -225h-371l573 1434h326l574 -1434h-371zM1004 1573q-63 0 -108 43q-44 43 -44 106q0 64 44 108t108 44t107 -44q44 -44 44 -108t-44 -106q-44 -43 -107 -43z
M452 1573q-64 0 -109 43q-44 43 -44 106q0 64 45 108q44 44 108 44t107 -44t43 -108t-43 -106q-43 -43 -107 -43z" />
    <glyph glyph-name="aring" unicode="&#xe5;" horiz-adv-x="1472" 
d="M563 526h346l-102 279q-37 108 -57 178l-13 33h-2l-10 -33q-11 -35 -29 -89t-30 -89zM848 1698q0 46 -33 78t-78 32t-78 -32t-33 -78q0 -45 34 -78q32 -33 77 -33t78 33t33 78zM426 1694q0 125 91 216t218 91t217 -90t90 -217q0 -168 -143 -260l574 -1434h-371l-82 225
h-567l-82 -225h-371l573 1434q-67 40 -107 110t-40 150z" />
    <glyph glyph-name="ae" unicode="&#xe6;" horiz-adv-x="2097" 
d="M909 526v586h-137l-18 -47q-16 -49 -45 -131t-45 -129l-101 -279h346zM1243 322h711v-322h-1045v225h-454l-82 -225h-373l575 1434h1367v-322h-699v-235h547v-302h-547v-253z" />
    <glyph glyph-name="ccedilla" unicode="&#xe7;" horiz-adv-x="1544" 
d="M836 -559h-254l69 178h185q59 0 59 45t-59 49h-220l91 267q-274 37 -455 241q-180 205 -180 511t216 518t527 212q209 0 382 -103t269 -278l-350 -92q-49 61 -132 97t-169 36q-176 0 -280 -112q-105 -112 -105 -294q0 -181 108 -291t277 -110q103 0 193 47t135 121
l348 -90q-82 -176 -242 -288t-358 -130l-33 -90q90 2 157 -58t67 -168t-70 -163t-176 -55z" />
    <glyph glyph-name="egrave" unicode="&#xe8;" horiz-adv-x="1357" 
d="M504 322h710v-322h-1054v1434h1042v-322h-698v-235h547v-302h-547v-253zM920 1669l-99 -180l-508 211l117 231z" />
    <glyph glyph-name="eacute" unicode="&#xe9;" horiz-adv-x="1357" 
d="M504 322h710v-322h-1054v1434h1042v-322h-698v-235h547v-302h-547v-253zM1063 1700l-508 -211l-98 180l489 262z" />
    <glyph glyph-name="ecircumflex" unicode="&#xea;" horiz-adv-x="1357" 
d="M504 322h710v-322h-1054v1434h1042v-322h-698v-235h547v-302h-547v-253zM705 1683l-238 -196l-166 168l404 342l401 -342l-164 -168z" />
    <glyph glyph-name="edieresis" unicode="&#xeb;" horiz-adv-x="1357" 
d="M504 322h710v-322h-1054v1434h1042v-322h-698v-235h547v-302h-547v-253zM981 1573q-63 0 -108 43q-44 43 -44 106q0 64 44 108q43 44 107 44t108 -44t45 -108q-1 -64 -45 -106q-44 -43 -107 -43zM430 1874q62 0 106 -44t44 -108t-44 -106q-44 -43 -108 -43t-108 43
t-44 106q0 64 46 108t108 44z" />
    <glyph glyph-name="igrave" unicode="&#xec;" horiz-adv-x="663" 
d="M504 0h-344v1434h344v-1434zM440 1489l-508 211l117 231l490 -262z" />
    <glyph glyph-name="iacute" unicode="&#xed;" horiz-adv-x="663" 
d="M504 0h-344v1434h344v-1434zM565 1931l117 -231l-508 -211l-98 180z" />
    <glyph glyph-name="icircumflex" unicode="&#xee;" horiz-adv-x="663" 
d="M504 0h-344v1434h344v-1434zM-80 1655l404 342l401 -342l-164 -168l-237 196l-238 -196z" />
    <glyph glyph-name="idieresis" unicode="&#xef;" horiz-adv-x="663" 
d="M504 0h-344v1434h344v-1434zM600 1573q-63 0 -107 43t-44 106q0 64 44 108t107 44q64 0 108 -44t44 -108t-44 -106q-44 -43 -108 -43zM49 1874q63 0 107 -44t43 -108q1 -64 -43 -106q-44 -43 -108 -43t-108 43t-44 106q0 64 45 108t108 44z" />
    <glyph glyph-name="eth" unicode="&#xf0;" horiz-adv-x="1628" 
d="M532 322h283q159 0 271 105t112 283t-112 290t-271 112h-283v-233h220v-310h-220v-247zM188 1434h627q313 0 527 -203t214 -519t-214 -514t-527 -198h-627v569h-116v310h116v555z" />
    <glyph glyph-name="ntilde" unicode="&#xf1;" horiz-adv-x="1605" 
d="M1102 1434h344v-1434h-324l-293 399q-55 76 -138 193t-134 188l-53 72h-2v-70l2 -465v-317h-344v1434h323l305 -410q39 -53 118 -163t138 -189l58 -80h2v75l-2 439v328zM1038 1835h267q1 -139 -91 -229t-233 -90q-66 0 -125 32t-108 63q-93 61 -151 7q-26 -25 -26 -64
h-266q0 140 91 230t233 90q86 0 183 -64t136 -63q38 1 64 25t26 63z" />
    <glyph glyph-name="ograve" unicode="&#xf2;" horiz-adv-x="1632" 
d="M430 718q0 -181 106 -294t280 -113q173 0 280 113q106 113 106 294t-106 293q-106 111 -280 111t-280 -112t-106 -292zM72 717q0 321 216 533t528 212t528 -212t217 -534q0 -322 -216 -533q-217 -212 -529 -212t-528 212t-216 534zM930 1489l-508 211l117 231l489 -262z
" />
    <glyph glyph-name="oacute" unicode="&#xf3;" horiz-adv-x="1632" 
d="M430 718q0 -181 106 -294t280 -113q173 0 280 113q106 113 106 294t-106 293q-106 111 -280 111t-280 -112t-106 -292zM72 717q0 321 216 533t528 212t528 -212t217 -534q0 -322 -216 -533q-217 -212 -529 -212t-528 212t-216 534zM1055 1931l116 -231l-507 -211l-99 180
z" />
    <glyph glyph-name="ocircumflex" unicode="&#xf4;" horiz-adv-x="1632" 
d="M430 718q0 -181 106 -294t280 -113q173 0 280 113q106 113 106 294t-106 293q-106 111 -280 111t-280 -112t-106 -292zM72 717q0 321 216 533t528 212t528 -212t217 -534q0 -322 -216 -533q-217 -212 -529 -212t-528 212t-216 534zM410 1655l403 342l401 -342l-163 -168
l-238 196l-238 -196z" />
    <glyph glyph-name="otilde" unicode="&#xf5;" horiz-adv-x="1632" 
d="M430 718q0 -181 106 -294t280 -113q173 0 280 113q106 113 106 294t-106 293q-106 111 -280 111t-280 -112t-106 -292zM72 717q0 321 216 533t528 212t528 -212t217 -534q0 -322 -216 -533q-217 -212 -529 -212t-528 212t-216 534zM1057 1835h266q0 -139 -91 -229
t-233 -90q-82 0 -180 63t-138 63t-66 -24t-25 -64h-266q0 140 91 230t232 90q68 0 128 -32q59 -32 107 -64t86 -31t64 25t25 63z" />
    <glyph glyph-name="odieresis" unicode="&#xf6;" horiz-adv-x="1632" 
d="M430 718q0 -181 106 -294t280 -113q173 0 280 113q106 113 106 294t-106 293q-106 111 -280 111t-280 -112t-106 -292zM72 717q0 321 216 533t528 212t528 -212t217 -534q0 -322 -216 -533q-217 -212 -529 -212t-528 212t-216 534zM1090 1573q-63 0 -108 43
q-44 43 -44 106q0 64 44 108t108 44t107 -44q44 -44 44 -108t-44 -106q-44 -43 -107 -43zM538 1573q-64 0 -109 43q-44 43 -44 106q0 64 45 108q44 44 108 44t107 -44t43 -108t-43 -106q-43 -43 -107 -43z" />
    <glyph glyph-name="divide" unicode="&#xf7;" 
d="M704 426q68 0 114 -47t46 -114t-46 -114t-114 -47q-67 0 -114 48t-47 114t47 113t114 47zM252 866h928v-280h-928v280zM543 1187q0 67 47 113t114 48q68 0 114 -48t46 -114t-46 -113t-114 -47q-67 0 -114 47t-47 114z" />
    <glyph glyph-name="oslash" unicode="&#xf8;" horiz-adv-x="1632" 
d="M1202 717q0 104 -39 194l-450 -587q49 -12 102 -13q174 0 281 113q106 113 106 293zM815 1122q-174 0 -279 -112t-106 -293q0 -113 45 -203l455 594q-49 14 -115 14zM815 -29q-168 0 -319 68l-76 -98l-244 184l76 98q-180 207 -180 511t216 516t527 212q176 0 330 -73
l76 98l243 -182l-78 -101q174 -207 175 -487q0 -322 -216 -534t-530 -212z" />
    <glyph glyph-name="ugrave" unicode="&#xf9;" horiz-adv-x="1531" 
d="M1055 1434h344v-797q0 -317 -172 -491t-462 -175q-290 0 -461 174t-171 492v797h344v-789q0 -352 289 -352t289 352v789zM877 1489l-508 211l116 231l490 -262z" />
    <glyph glyph-name="uacute" unicode="&#xfa;" horiz-adv-x="1531" 
d="M1055 1434h344v-797q0 -317 -172 -491t-462 -175q-290 0 -461 174t-171 492v797h344v-789q0 -352 289 -352t289 352v789zM1001 1931l117 -231l-508 -211l-98 180z" />
    <glyph glyph-name="ucircumflex" unicode="&#xfb;" horiz-adv-x="1531" 
d="M1055 1434h344v-797q0 -317 -172 -491t-462 -175q-290 0 -461 174t-171 492v797h344v-789q0 -352 289 -352t289 352v789zM356 1655l404 342l401 -342l-164 -168l-237 196l-238 -196z" />
    <glyph glyph-name="udieresis" unicode="&#xfc;" horiz-adv-x="1531" 
d="M1055 1434h344v-797q0 -317 -172 -491t-462 -175q-290 0 -461 174t-171 492v797h344v-789q0 -352 289 -352t289 352v789zM1036 1573q-63 0 -107 43t-44 106q0 64 44 108t107 44q64 0 108 -44t44 -108t-44 -106q-44 -43 -108 -43zM485 1874q63 0 107 -44t43 -108
q1 -64 -43 -106q-44 -43 -108 -43t-108 43t-44 106q0 64 45 108t108 44z" />
    <glyph glyph-name="yacute" unicode="&#xfd;" horiz-adv-x="1480" 
d="M911 0h-342v635l-549 799h386l260 -383q70 -104 73 -105h2q4 0 74 105l260 383h385l-549 -799v-635zM975 1931l117 -231l-508 -211l-99 180z" />
    <glyph glyph-name="thorn" unicode="&#xfe;" horiz-adv-x="1331" 
d="M504 547h215q92 0 142 47t50 123t-50 123t-142 47h-215v-340zM504 1208h207q251 0 405 -138t154 -353t-155 -353t-404 -139h-207v-225h-344v1434h344v-226z" />
    <glyph glyph-name="ydieresis" unicode="&#xff;" horiz-adv-x="1480" 
d="M911 0h-342v635l-549 799h386l260 -383q70 -104 73 -105h2q4 0 74 105l260 383h385l-549 -799v-635zM1010 1573q-63 0 -108 43q-44 43 -44 106q0 64 44 108t108 44t107 -44q44 -44 44 -108t-44 -106q-44 -43 -107 -43zM458 1573q-64 0 -109 43q-44 43 -44 106
q0 64 45 108q44 44 108 44t107 -44t43 -108t-43 -106q-43 -43 -107 -43z" />
    <glyph glyph-name="Amacron" unicode="&#x100;" horiz-adv-x="1472" 
d="M563 526h346l-102 279q-37 108 -57 178l-13 33h-2l-10 -33q-11 -35 -29 -89t-30 -89zM1102 0l-82 225h-567l-82 -225h-371l573 1434h326l574 -1434h-371zM1100 1833v-264h-711v264h711z" />
    <glyph glyph-name="amacron" unicode="&#x101;" horiz-adv-x="1472" 
d="M563 526h346l-102 279q-37 108 -57 178l-13 33h-2l-10 -33q-11 -35 -29 -89t-30 -89zM1102 0l-82 225h-567l-82 -225h-371l573 1434h326l574 -1434h-371zM1100 1833v-264h-711v264h711z" />
    <glyph glyph-name="Abreve" unicode="&#x102;" horiz-adv-x="1472" 
d="M563 526h346l-102 279q-37 108 -57 178l-13 33h-2l-10 -33q-11 -35 -29 -89t-30 -89zM1102 0l-82 225h-567l-82 -225h-371l573 1434h326l574 -1434h-371zM730 1520q-148 0 -258 89q-108 89 -138 230h250q14 -45 54 -77t96 -32t98 32t53 77h245q-32 -141 -142 -230
t-258 -89z" />
    <glyph glyph-name="abreve" unicode="&#x103;" horiz-adv-x="1472" 
d="M563 526h346l-102 279q-37 108 -57 178l-13 33h-2l-10 -33q-11 -35 -29 -89t-30 -89zM1102 0l-82 225h-567l-82 -225h-371l573 1434h326l574 -1434h-371zM730 1520q-148 0 -258 89q-108 89 -138 230h250q14 -45 54 -77t96 -32t98 32t53 77h245q-32 -141 -142 -230
t-258 -89z" />
    <glyph glyph-name="Aogonek" unicode="&#x104;" horiz-adv-x="1472" 
d="M563 526h346l-102 279q-37 108 -57 178l-13 33h-2l-10 -33q-11 -35 -29 -89t-30 -89zM1200 -506q-168 0 -274 89t-107 247q0 119 80 207t154 98l-33 90h-567l-82 -225h-371l573 1434h326l574 -1434h-183q-86 0 -158 -44t-71 -126q0 -51 37 -87t97 -36q123 0 183 117
l176 -117q-55 -101 -151 -157t-203 -56z" />
    <glyph glyph-name="aogonek" unicode="&#x105;" horiz-adv-x="1472" 
d="M563 526h346l-102 279q-37 108 -57 178l-13 33h-2l-10 -33q-11 -35 -29 -89t-30 -89zM1200 -506q-168 0 -274 89t-107 247q0 119 80 207t154 98l-33 90h-567l-82 -225h-371l573 1434h326l574 -1434h-183q-86 0 -158 -44t-71 -126q0 -51 37 -87t97 -36q123 0 183 117
l176 -117q-55 -101 -151 -157t-203 -56z" />
    <glyph glyph-name="Cacute" unicode="&#x106;" horiz-adv-x="1544" 
d="M815 1122q-176 0 -280 -112q-105 -112 -105 -294q0 -181 108 -291t277 -110q103 0 193 47t135 121l348 -90q-90 -193 -271 -307t-405 -115q-311 0 -527 212t-216 534q0 321 216 533t527 212q209 0 382 -104t269 -277l-350 -92q-49 61 -132 97t-169 36zM1047 1931
l116 -231l-508 -211l-98 180z" />
    <glyph glyph-name="cacute" unicode="&#x107;" horiz-adv-x="1544" 
d="M815 1122q-176 0 -280 -112q-105 -112 -105 -294q0 -181 108 -291t277 -110q103 0 193 47t135 121l348 -90q-90 -193 -271 -307t-405 -115q-311 0 -527 212t-216 534q0 321 216 533t527 212q209 0 382 -104t269 -277l-350 -92q-49 61 -132 97t-169 36zM1047 1931
l116 -231l-508 -211l-98 180z" />
    <glyph glyph-name="Cdotaccent" unicode="&#x10a;" horiz-adv-x="1544" 
d="M815 1122q-176 0 -280 -112q-105 -112 -105 -294q0 -181 108 -291t277 -110q103 0 193 47t135 121l348 -90q-90 -193 -271 -307t-405 -115q-311 0 -527 212t-216 534q0 321 216 533t527 212q209 0 382 -104t269 -277l-350 -92q-49 61 -132 97t-169 36zM813 1571
q-63 0 -107 44t-44 107q0 64 44 108t107 44t107 -44t45 -108q-1 -64 -45 -107q-44 -44 -107 -44z" />
    <glyph glyph-name="cdotaccent" unicode="&#x10b;" horiz-adv-x="1544" 
d="M815 1122q-176 0 -280 -112q-105 -112 -105 -294q0 -181 108 -291t277 -110q103 0 193 47t135 121l348 -90q-90 -193 -271 -307t-405 -115q-311 0 -527 212t-216 534q0 321 216 533t527 212q209 0 382 -104t269 -277l-350 -92q-49 61 -132 97t-169 36zM813 1571
q-63 0 -107 44t-44 107q0 64 44 108t107 44t107 -44t45 -108q-1 -64 -45 -107q-44 -44 -107 -44z" />
    <glyph glyph-name="Ccaron" unicode="&#x10c;" horiz-adv-x="1544" 
d="M815 1122q-176 0 -280 -112q-105 -112 -105 -294q0 -181 108 -291t277 -110q103 0 193 47t135 121l348 -90q-90 -193 -271 -307t-405 -115q-311 0 -527 212t-216 534q0 321 216 533t527 212q209 0 382 -104t269 -277l-350 -92q-49 61 -132 97t-169 36zM410 1823l165 168
l238 -197l238 197l163 -168l-401 -342z" />
    <glyph glyph-name="ccaron" unicode="&#x10d;" horiz-adv-x="1544" 
d="M815 1122q-176 0 -280 -112q-105 -112 -105 -294q0 -181 108 -291t277 -110q103 0 193 47t135 121l348 -90q-90 -193 -271 -307t-405 -115q-311 0 -527 212t-216 534q0 321 216 533t527 212q209 0 382 -104t269 -277l-350 -92q-49 61 -132 97t-169 36zM410 1823l165 168
l238 -197l238 197l163 -168l-401 -342z" />
    <glyph glyph-name="Dcaron" unicode="&#x10e;" horiz-adv-x="1599" 
d="M504 322h282q160 0 272 105t112 283t-112 290t-272 112h-282v-790zM160 1434h626q314 0 528 -203t214 -519t-214 -514t-528 -198h-626v1434zM387 1823l166 168l238 -197l237 197l164 -168l-401 -342z" />
    <glyph glyph-name="dcaron" unicode="&#x10f;" horiz-adv-x="1599" 
d="M504 322h282q160 0 272 105t112 283t-112 290t-272 112h-282v-790zM160 1434h626q314 0 528 -203t214 -519t-214 -514t-528 -198h-626v1434zM387 1823l166 168l238 -197l237 197l164 -168l-401 -342z" />
    <glyph glyph-name="Dcroat" unicode="&#x110;" horiz-adv-x="1628" 
d="M532 322h283q159 0 271 105t112 283t-112 290t-271 112h-283v-233h220v-310h-220v-247zM188 1434h627q313 0 527 -203t214 -519t-214 -514t-527 -198h-627v569h-116v310h116v555z" />
    <glyph glyph-name="dcroat" unicode="&#x111;" horiz-adv-x="1628" 
d="M532 322h283q159 0 271 105t112 283t-112 290t-271 112h-283v-233h220v-310h-220v-247zM188 1434h627q313 0 527 -203t214 -519t-214 -514t-527 -198h-627v569h-116v310h116v555z" />
    <glyph glyph-name="Emacron" unicode="&#x112;" horiz-adv-x="1357" 
d="M504 322h710v-322h-1054v1434h1042v-322h-698v-235h547v-302h-547v-253zM1077 1833v-264h-710v264h710z" />
    <glyph glyph-name="emacron" unicode="&#x113;" horiz-adv-x="1357" 
d="M504 322h710v-322h-1054v1434h1042v-322h-698v-235h547v-302h-547v-253zM1077 1833v-264h-710v264h710z" />
    <glyph glyph-name="Edotaccent" unicode="&#x116;" horiz-adv-x="1357" 
d="M504 322h710v-322h-1054v1434h1042v-322h-698v-235h547v-302h-547v-253zM713 1571q-63 0 -108 44q-44 44 -44 107q0 64 44 108q43 44 107 44t108 -44t44 -108t-44 -107q-44 -44 -107 -44z" />
    <glyph glyph-name="edotaccent" unicode="&#x117;" horiz-adv-x="1357" 
d="M504 322h710v-322h-1054v1434h1042v-322h-698v-235h547v-302h-547v-253zM713 1571q-63 0 -108 44q-44 44 -44 107q0 64 44 108q43 44 107 44t108 -44t44 -108t-44 -107q-44 -44 -107 -44z" />
    <glyph glyph-name="Eogonek" unicode="&#x118;" horiz-adv-x="1357" 
d="M866 -506q-168 0 -274 89t-107 247q0 92 52 170h-377v1434h1042v-322h-698v-235h547v-302h-547v-253h710v-322h-258q-86 0 -158 -44t-71 -126q0 -51 37 -87t97 -36q123 0 183 117l177 -117q-55 -101 -151 -157t-204 -56z" />
    <glyph glyph-name="eogonek" unicode="&#x119;" horiz-adv-x="1357" 
d="M883 -506q-168 0 -275 89q-106 89 -106 247q0 92 51 170h-393v1434h1042v-322h-698v-235h547v-302h-547v-253h710v-322h-241q-86 0 -158 -44t-72 -126q0 -51 37 -87q38 -36 98 -36t108 32t75 85l176 -117q-55 -101 -151 -157t-203 -56z" />
    <glyph glyph-name="Ecaron" unicode="&#x11a;" horiz-adv-x="1357" 
d="M504 322h710v-322h-1054v1434h1042v-322h-698v-235h547v-302h-547v-253zM1114 1823l-401 -342l-404 342l166 168l238 -197l237 197z" />
    <glyph glyph-name="ecaron" unicode="&#x11b;" horiz-adv-x="1357" 
d="M504 322h710v-322h-1054v1434h1042v-322h-698v-235h547v-302h-547v-253zM1114 1823l-401 -342l-404 342l166 168l238 -197l237 197z" />
    <glyph glyph-name="Gcircumflex" unicode="&#x11c;" horiz-adv-x="1622" 
d="M1206 117h-2q-61 -66 -171 -106t-218 -40q-311 0 -527 212t-216 534q0 321 216 533t527 212q207 0 380 -102t271 -279l-350 -92q-49 61 -132 97t-169 36q-176 0 -280 -112q-105 -112 -105 -296q0 -183 114 -295t292 -112q285 0 370 225v3h-377v276h670v-811h-295v85l2 24
v8zM403 1655l404 342l401 -342l-164 -168l-237 196l-238 -196z" />
    <glyph glyph-name="gcircumflex" unicode="&#x11d;" horiz-adv-x="1622" 
d="M1206 117h-2q-61 -66 -171 -106t-218 -40q-311 0 -527 212t-216 534q0 321 216 533t527 212q207 0 380 -102t271 -279l-350 -92q-49 61 -132 97t-169 36q-176 0 -280 -112q-105 -112 -105 -296q0 -183 114 -295t292 -112q285 0 370 225v3h-377v276h670v-811h-295v85l2 24
v8zM403 1655l404 342l401 -342l-164 -168l-237 196l-238 -196z" />
    <glyph glyph-name="Gbreve" unicode="&#x11e;" horiz-adv-x="1622" 
d="M1206 117h-2q-61 -66 -171 -106t-218 -40q-311 0 -527 212t-216 534q0 321 216 533t527 212q207 0 380 -102t271 -279l-350 -92q-49 61 -132 97t-169 36q-176 0 -280 -112q-105 -112 -105 -296q0 -183 114 -295t292 -112q285 0 370 225v3h-377v276h670v-811h-295v85l2 24
v8zM810 1520q-148 0 -257 89q-108 89 -139 230h250q14 -45 54 -77t96 -32t97 32t54 77h245q-32 -141 -142 -230t-258 -89z" />
    <glyph glyph-name="gbreve" unicode="&#x11f;" horiz-adv-x="1622" 
d="M1206 117h-2q-61 -66 -171 -106t-218 -40q-311 0 -527 212t-216 534q0 321 216 533t527 212q207 0 380 -102t271 -279l-350 -92q-49 61 -132 97t-169 36q-176 0 -280 -112q-105 -112 -105 -296q0 -183 114 -295t292 -112q285 0 370 225v3h-377v276h670v-811h-295v85l2 24
v8zM810 1520q-148 0 -257 89q-108 89 -139 230h250q14 -45 54 -77t96 -32t97 32t54 77h245q-32 -141 -142 -230t-258 -89z" />
    <glyph glyph-name="Gdotaccent" unicode="&#x120;" horiz-adv-x="1622" 
d="M1206 117h-2q-61 -66 -171 -106t-218 -40q-311 0 -527 212t-216 534q0 321 216 533t527 212q207 0 380 -102t271 -279l-350 -92q-49 61 -132 97t-169 36q-176 0 -280 -112q-105 -112 -105 -296q0 -183 114 -295t292 -112q285 0 370 225v3h-377v276h670v-811h-295v85l2 24
v8zM815 1571q-63 0 -107 44t-44 107q0 64 44 108t107 44t107 -44t45 -108q-1 -64 -45 -107q-44 -44 -107 -44z" />
    <glyph glyph-name="gdotaccent" unicode="&#x121;" horiz-adv-x="1622" 
d="M1206 117h-2q-61 -66 -171 -106t-218 -40q-311 0 -527 212t-216 534q0 321 216 533t527 212q207 0 380 -102t271 -279l-350 -92q-49 61 -132 97t-169 36q-176 0 -280 -112q-105 -112 -105 -296q0 -183 114 -295t292 -112q285 0 370 225v3h-377v276h670v-811h-295v85l2 24
v8zM815 1571q-63 0 -107 44t-44 107q0 64 44 108t107 44t107 -44t45 -108q-1 -64 -45 -107q-44 -44 -107 -44z" />
    <glyph glyph-name="Gcommaaccent" unicode="&#x122;" horiz-adv-x="1622" 
d="M659 -223q0 57 43 100q42 43 104 43t104 -46t42 -125t-60 -176t-153 -169h-112q49 30 95 106t46 121l29 9l-29 4q-43 4 -76 40t-33 93zM1206 117h-2q-61 -66 -171 -106t-218 -40q-311 0 -527 212t-216 534q0 321 216 533t527 212q207 0 380 -102t271 -279l-350 -92
q-49 61 -132 97t-169 36q-176 0 -280 -112q-105 -112 -105 -296q0 -183 114 -295t292 -112q285 0 370 225v3h-377v276h670v-811h-295v85l2 24v8z" />
    <glyph glyph-name="gcommaaccent" unicode="&#x123;" horiz-adv-x="1622" 
d="M659 -223q0 57 43 100q42 43 104 43t104 -46t42 -125t-60 -176t-153 -169h-112q49 30 95 106t46 121l29 9l-29 4q-43 4 -76 40t-33 93zM1206 117h-2q-61 -66 -171 -106t-218 -40q-311 0 -527 212t-216 534q0 321 216 533t527 212q207 0 380 -102t271 -279l-350 -92
q-49 61 -132 97t-169 36q-176 0 -280 -112q-105 -112 -105 -296q0 -183 114 -295t292 -112q285 0 370 225v3h-377v276h670v-811h-295v85l2 24v8z" />
    <glyph glyph-name="Hcircumflex" unicode="&#x124;" horiz-adv-x="1544" 
d="M1040 1434h344v-1434h-344v557h-536v-557h-344v1434h344v-555h536v555zM764 1683l-238 -196l-166 168l404 342l401 -342l-164 -168z" />
    <glyph glyph-name="hcircumflex" unicode="&#x125;" horiz-adv-x="1544" 
d="M1040 1434h344v-1434h-344v557h-536v-557h-344v1434h344v-555h536v555zM764 1683l-238 -196l-166 168l404 342l401 -342l-164 -168z" />
    <glyph glyph-name="Hbar" unicode="&#x126;" horiz-adv-x="1544" 
d="M1040 879v147h-536v-147h536zM1532 1307v-281h-148v-1026h-344v557h-536v-557h-344v1026h-148v281h148v127h344v-127h536v127h344v-127h148z" />
    <glyph glyph-name="hbar" unicode="&#x127;" horiz-adv-x="1544" 
d="M1040 879v147h-536v-147h536zM1532 1307v-281h-148v-1026h-344v557h-536v-557h-344v1026h-148v281h148v127h344v-127h536v127h344v-127h148z" />
    <glyph glyph-name="Imacron" unicode="&#x12a;" horiz-adv-x="663" 
d="M504 0h-344v1434h344v-1434zM-14 1833h710v-264h-710v264z" />
    <glyph glyph-name="imacron" unicode="&#x12b;" horiz-adv-x="663" 
d="M504 0h-344v1434h344v-1434zM-14 1833h710v-264h-710v264z" />
    <glyph glyph-name="Iogonek" unicode="&#x12e;" horiz-adv-x="663" 
d="M305 -506q-168 0 -274 89t-107 247q0 119 81 207t155 100v1297h344v-1434h-109q-85 0 -157 -44t-72 -126q0 -51 37 -87t97 -36q123 0 183 117l176 -117q-55 -101 -151 -157t-203 -56z" />
    <glyph glyph-name="iogonek" unicode="&#x12f;" horiz-adv-x="663" 
d="M305 -506q-168 0 -274 89t-107 247q0 119 81 207t155 100v1297h344v-1434h-109q-85 0 -157 -44t-72 -126q0 -51 37 -87t97 -36q123 0 183 117l176 -117q-55 -101 -151 -157t-203 -56z" />
    <glyph glyph-name="Idotaccent" unicode="&#x130;" horiz-adv-x="663" 
d="M504 0h-344v1434h344v-1434zM332 1571q-63 0 -108 44q-44 44 -44 107q0 64 44 108t108 44t107 -44q44 -44 44 -108t-44 -107q-44 -44 -107 -44z" />
    <glyph glyph-name="dotlessi" unicode="&#x131;" horiz-adv-x="663" 
d="M504 0h-344v1434h344v-1434z" />
    <glyph glyph-name="IJ" unicode="&#x132;" horiz-adv-x="2023" 
d="M1546 1434h344v-797q0 -315 -177 -491t-468 -175q-203 1 -365 103t-227 264l338 90q78 -135 254 -135q141 0 221 89t80 243v809zM504 0h-344v1434h344v-1434z" />
    <glyph glyph-name="ij" unicode="&#x133;" horiz-adv-x="2023" 
d="M1546 1434h344v-797q0 -315 -177 -491t-468 -175q-203 1 -365 103t-227 264l338 90q78 -135 254 -135q141 0 221 89t80 243v809zM504 0h-344v1434h344v-1434z" />
    <glyph glyph-name="Jcircumflex" unicode="&#x134;" horiz-adv-x="1390" 
d="M913 1434h344v-797q0 -315 -177 -491t-468 -175q-202 1 -364 103t-228 264l338 90q78 -135 254 -135q141 0 222 89q80 89 79 243v809zM676 1655l403 342l402 -342l-164 -168l-238 196l-237 -196z" />
    <glyph glyph-name="jcircumflex" unicode="&#x135;" horiz-adv-x="1390" 
d="M913 1434h344v-797q0 -315 -177 -491t-468 -175q-202 1 -364 103t-228 264l338 90q78 -135 254 -135q141 0 222 89q80 89 79 243v809zM676 1655l403 342l402 -342l-164 -168l-238 196l-237 -196z" />
    <glyph glyph-name="Kcommaaccent" unicode="&#x136;" horiz-adv-x="1501" 
d="M610 -223q0 57 43 100t105 43t103 -46q42 -46 42 -125t-60 -176t-153 -169h-112q49 31 95 107t46 120l29 9l-29 4q-43 4 -76 40t-33 93zM504 1200q0 -238 -4 -282v-25h2l14 16q16 15 64 65t110 113l348 347h422l-608 -611l612 -823h-405l-434 596l-121 -121v-475h-344
v1434h344v-234z" />
    <glyph glyph-name="kcommaaccent" unicode="&#x137;" horiz-adv-x="1501" 
d="M606 -223q0 57 43 100t105 43t103 -46q42 -46 42 -125t-60 -176t-153 -169h-113q49 31 96 107q46 76 46 120l28 9l-28 4q-43 4 -76 40t-33 93zM504 1200q0 -238 -4 -282v-25h2l14 16q16 15 64 65t110 113l348 347h422l-608 -611l612 -823h-405l-434 596l-121 -121v-475
h-344v1434h344v-234z" />
    <glyph glyph-name="Lacute" unicode="&#x139;" horiz-adv-x="1222" 
d="M504 322h678v-322h-1022v1434h344v-1112zM709 1700l-508 -211l-99 180l490 262z" />
    <glyph glyph-name="lacute" unicode="&#x13a;" horiz-adv-x="1222" 
d="M504 322h678v-322h-1022v1434h344v-1112zM709 1700l-508 -211l-99 180l490 262z" />
    <glyph glyph-name="Lcommaaccent" unicode="&#x13b;" horiz-adv-x="1222" 
d="M690 -80q62 0 104 -46t42 -125t-60 -176t-153 -169h-113q49 31 95 107t46 120l29 9l-29 4q-43 4 -76 40t-33 93t44 100q43 43 104 43zM504 322h678v-322h-1022v1434h344v-1112z" />
    <glyph glyph-name="lcommaaccent" unicode="&#x13c;" horiz-adv-x="1222" 
d="M416 -223q0 57 43 100t104 43t103 -46t43 -125q-1 -79 -61 -176t-152 -169h-113q49 31 95 107t46 120l29 9l-29 4q-44 4 -76 40t-32 93zM504 322h678v-322h-1022v1434h344v-1112z" />
    <glyph glyph-name="Lcaron" unicode="&#x13d;" horiz-adv-x="1222" 
d="M504 322h678v-322h-1022v1434h344v-1112zM694 1302q0 62 47 109t115 47t114 -50t46 -137t-67 -195t-167 -187h-125q53 33 105 118q51 85 51 134l31 8l-31 4q-47 6 -83 46q-36 41 -36 103z" />
    <glyph glyph-name="lcaron" unicode="&#x13e;" horiz-adv-x="1222" 
d="M504 322h678v-322h-1022v1434h344v-1112zM674 1302q0 62 47 109t115 47t114 -50t45 -137t-67 -195t-166 -187h-125q53 33 104 118t52 134l30 8l-30 4q-47 6 -83 46q-36 41 -36 103z" />
    <glyph glyph-name="Ldot" unicode="&#x13f;" horiz-adv-x="1222" 
d="M868 645q-63 0 -107 44q-44 43 -44 107t44 108t107 44q64 0 108 -44t44 -107t-44 -108q-45 -44 -108 -44zM504 322h678v-322h-1022v1434h344v-1112z" />
    <glyph glyph-name="ldot" unicode="&#x140;" horiz-adv-x="1222" 
d="M868 645q-63 0 -107 44q-44 43 -44 107t44 108t107 44q64 0 108 -44t44 -107t-44 -108q-45 -44 -108 -44zM504 322h678v-322h-1022v1434h344v-1112z" />
    <glyph glyph-name="Lslash" unicode="&#x141;" horiz-adv-x="1222" 
d="M504 322h678v-322h-1022v1434h344v-512l493 256v-326l-493 -254v-276z" />
    <glyph glyph-name="lslash" unicode="&#x142;" horiz-adv-x="1222" 
d="M504 322h678v-322h-1022v1434h344v-512l493 256v-326l-493 -254v-276z" />
    <glyph glyph-name="Nacute" unicode="&#x143;" horiz-adv-x="1605" 
d="M1102 1434h344v-1434h-324l-293 399q-55 76 -138 193t-134 188l-53 72h-2v-70l2 -465v-317h-344v1434h323l305 -410q39 -53 118 -163t138 -189l58 -80h2v75l-2 439v328zM1036 1931l117 -231l-508 -211l-98 180z" />
    <glyph glyph-name="nacute" unicode="&#x144;" horiz-adv-x="1605" 
d="M1102 1434h344v-1434h-324l-293 399q-55 76 -138 193t-134 188l-53 72h-2v-70l2 -465v-317h-344v1434h323l305 -410q39 -53 118 -163t138 -189l58 -80h2v75l-2 439v328zM1036 1931l117 -231l-508 -211l-98 180z" />
    <glyph glyph-name="Ncommaaccent" unicode="&#x145;" horiz-adv-x="1605" 
d="M815 -80q61 0 103 -46t43 -125q-1 -79 -61 -176t-152 -169h-113q49 30 95 106t46 121l29 9l-29 4q-43 4 -76 40q-32 36 -32 93t43 100t104 43zM1102 1434h344v-1434h-324l-293 399q-55 76 -138 193t-134 188l-53 72h-2v-70l2 -465v-317h-344v1434h323l305 -410
q39 -53 118 -163t138 -189l58 -80h2v75l-2 439v328z" />
    <glyph glyph-name="ncommaaccent" unicode="&#x146;" horiz-adv-x="1605" 
d="M815 -80q61 0 103 -46t43 -125q-1 -79 -61 -176t-152 -169h-113q49 30 95 106t46 121l29 9l-29 4q-43 4 -76 40q-32 36 -32 93t43 100t104 43zM1102 1434h344v-1434h-324l-293 399q-55 76 -138 193t-134 188l-53 72h-2v-70l2 -465v-317h-344v1434h323l305 -410
q39 -53 118 -163t138 -189l58 -80h2v75l-2 439v328z" />
    <glyph glyph-name="Ncaron" unicode="&#x147;" horiz-adv-x="1605" 
d="M1102 1434h344v-1434h-324l-293 399q-55 76 -138 193t-134 188l-53 72h-2v-70l2 -465v-317h-344v1434h323l305 -410q39 -53 118 -163t138 -189l58 -80h2v75l-2 439v328zM399 1823l166 168l238 -197l237 197l164 -168l-401 -342z" />
    <glyph glyph-name="ncaron" unicode="&#x148;" horiz-adv-x="1605" 
d="M1102 1434h344v-1434h-324l-293 399q-55 76 -138 193t-134 188l-53 72h-2v-70l2 -465v-317h-344v1434h323l305 -410q39 -53 118 -163t138 -189l58 -80h2v75l-2 439v328zM399 1823l166 168l238 -197l237 197l164 -168l-401 -342z" />
    <glyph glyph-name="Eng" unicode="&#x14a;" horiz-adv-x="1605" 
d="M1102 1434h344v-1434q0 -219 -137 -362t-348 -144h-84v275h53q92 0 142 62t50 169l-293 399q-55 76 -138 193t-134 188l-53 72h-2v-70l2 -465v-317h-344v1434h323l305 -410q39 -53 118 -163t138 -189l58 -80h2v75l-2 439v328z" />
    <glyph glyph-name="eng" unicode="&#x14b;" horiz-adv-x="1605" 
d="M1102 1434h344v-1434q0 -219 -137 -362t-348 -144h-84v275h53q92 0 142 62t50 169l-293 399q-55 76 -138 193t-134 188l-53 72h-2v-70l2 -465v-317h-344v1434h323l305 -410q39 -53 118 -163t138 -189l58 -80h2v75l-2 439v328z" />
    <glyph glyph-name="Omacron" unicode="&#x14c;" horiz-adv-x="1632" 
d="M430 718q0 -181 106 -294t280 -113q173 0 280 113q106 113 106 294t-106 293q-106 111 -280 111t-280 -112t-106 -292zM72 717q0 321 216 533t528 212t528 -212t217 -534q0 -322 -216 -533q-217 -212 -529 -212t-528 212t-216 534zM479 1833h711v-264h-711v264z" />
    <glyph glyph-name="omacron" unicode="&#x14d;" horiz-adv-x="1632" 
d="M430 718q0 -181 106 -294t280 -113q173 0 280 113q106 113 106 294t-106 293q-106 111 -280 111t-280 -112t-106 -292zM72 717q0 321 216 533t528 212t528 -212t217 -534q0 -322 -216 -533q-217 -212 -529 -212t-528 212t-216 534zM475 1833h711v-264h-711v264z" />
    <glyph glyph-name="Ohungarumlaut" unicode="&#x150;" horiz-adv-x="1632" 
d="M816 311q173 0 280 113q106 113 106 294t-106 293q-106 111 -280 111t-280 -112t-106 -292q0 -181 106 -294t280 -113zM72 717q0 321 216 533t528 212t528 -212t217 -534q0 -322 -216 -533q-217 -212 -529 -212t-528 212t-216 534zM807 1614l-301 -125l-98 180l489 262
l78 -155l291 155l116 -231l-508 -211z" />
    <glyph glyph-name="ohungarumlaut" unicode="&#x151;" horiz-adv-x="1632" 
d="M816 311q173 0 280 113q106 113 106 294t-106 293q-106 111 -280 111t-280 -112t-106 -292q0 -181 106 -294t280 -113zM72 717q0 321 216 533t528 212t528 -212t217 -534q0 -322 -216 -533q-217 -212 -529 -212t-528 212t-216 534zM803 1614l-301 -125l-99 180l490 262
l78 -155l291 155l116 -231l-508 -211z" />
    <glyph glyph-name="OE" unicode="&#x152;" horiz-adv-x="2183" 
d="M795 1102q-169 0 -267 -104t-98 -280q0 -174 99 -280t266 -106q118 0 200 35v700q-76 35 -200 35zM1329 322h711v-322h-1045q-63 -8 -200 -8q-305 0 -514 205t-209 520t209 520t514 205q131 0 200 -8h1033v-322h-699v-235h547v-302h-547v-253z" />
    <glyph glyph-name="oe" unicode="&#x153;" horiz-adv-x="2183" 
d="M795 1102q-169 0 -267 -104t-98 -280q0 -174 99 -280t266 -106q118 0 200 35v700q-76 35 -200 35zM1329 322h711v-322h-1045q-63 -8 -200 -8q-305 0 -514 205t-209 520t209 520t514 205q131 0 200 -8h1033v-322h-699v-235h547v-302h-547v-253z" />
    <glyph glyph-name="Racute" unicode="&#x154;" horiz-adv-x="1392" 
d="M504 1112v-340h237q86 0 129 51t43 119t-43 119t-129 51h-237zM504 467v-467h-344v1434h534q268 0 423 -134t155 -358q0 -293 -258 -414l317 -528h-385l-266 467h-176zM1022 1700l-508 -211l-98 180l489 262z" />
    <glyph glyph-name="racute" unicode="&#x155;" horiz-adv-x="1392" 
d="M504 1112v-340h237q86 0 129 51t43 119t-43 119t-129 51h-237zM504 467v-467h-344v1434h534q268 0 423 -134t155 -358q0 -293 -258 -414l317 -528h-385l-266 467h-176zM1022 1700l-508 -211l-98 180l489 262z" />
    <glyph glyph-name="Rcommaaccent" unicode="&#x156;" horiz-adv-x="1392" 
d="M557 -223q0 57 43 100q42 43 104 43t104 -46t42 -125t-60 -176t-153 -169h-113q49 31 96 107q46 76 46 120l28 9l-28 4q-43 4 -76 40t-33 93zM504 1112v-340h237q86 0 129 51t43 119t-43 119t-129 51h-237zM504 467v-467h-344v1434h534q268 0 423 -134t155 -358
q0 -293 -258 -414l317 -528h-385l-266 467h-176z" />
    <glyph glyph-name="rcommaaccent" unicode="&#x157;" horiz-adv-x="1392" 
d="M573 -223q0 57 43 100q42 43 104 43t104 -46t42 -125t-60 -176t-153 -169h-112q49 31 95 107t46 120l29 9l-29 4q-43 4 -76 40t-33 93zM504 1112v-340h237q86 0 129 51t43 119t-43 119t-129 51h-237zM504 467v-467h-344v1434h534q268 0 423 -134t155 -358
q0 -293 -258 -414l317 -528h-385l-266 467h-176z" />
    <glyph glyph-name="Rcaron" unicode="&#x158;" horiz-adv-x="1392" 
d="M504 1112v-340h237q86 0 129 51t43 119t-43 119t-129 51h-237zM504 467v-467h-344v1434h534q268 0 423 -134t155 -358q0 -293 -258 -414l317 -528h-385l-266 467h-176zM1073 1823l-401 -342l-404 342l166 168l238 -197l237 197z" />
    <glyph glyph-name="rcaron" unicode="&#x159;" horiz-adv-x="1392" 
d="M504 1112v-340h237q86 0 129 51t43 119t-43 119t-129 51h-237zM504 467v-467h-344v1434h534q268 0 423 -134t155 -358q0 -293 -258 -414l317 -528h-385l-266 467h-176zM1073 1823l-401 -342l-404 342l166 168l238 -197l237 197z" />
    <glyph glyph-name="Sacute" unicode="&#x15a;" horiz-adv-x="1257" 
d="M618 1165q-78 1 -122 -31t-43 -75q0 -43 26 -65q62 -51 214 -103t229 -92q185 -94 247 -218q37 -73 37 -161q0 -197 -154 -323t-390 -126t-393 115t-228 320l330 88q31 -90 107 -154t174 -64t144 36t46 80t-16 70q-32 50 -218 113q-185 63 -255 100q-70 36 -131 84
q-124 99 -124 274t154 302t370 127t368 -110t204 -283l-332 -90q-25 90 -95 138q-71 48 -149 48zM891 1931l117 -231l-508 -211l-99 180z" />
    <glyph glyph-name="sacute" unicode="&#x15b;" horiz-adv-x="1257" 
d="M618 1165q-78 1 -122 -31t-43 -75q0 -43 26 -65q62 -51 214 -103t229 -92q185 -94 247 -218q37 -73 37 -161q0 -197 -154 -323t-390 -126t-393 115t-228 320l330 88q31 -90 107 -154t174 -64t144 36t46 80t-16 70q-32 50 -218 113q-185 63 -255 100q-70 36 -131 84
q-124 99 -124 274t154 302t370 127t368 -110t204 -283l-332 -90q-25 90 -95 138q-71 48 -149 48zM911 1931l117 -231l-508 -211l-98 180z" />
    <glyph glyph-name="Scircumflex" unicode="&#x15c;" horiz-adv-x="1257" 
d="M618 1165q-78 1 -122 -31t-43 -75q0 -43 26 -65q62 -51 214 -103t229 -92q185 -94 247 -218q37 -73 37 -161q0 -197 -154 -323t-390 -126t-393 115t-228 320l330 88q31 -90 107 -154t174 -64t144 36t46 80t-16 70q-32 50 -218 113q-185 63 -255 100q-70 36 -131 84
q-124 99 -124 274t154 302t370 127t368 -110t204 -283l-332 -90q-25 90 -95 138q-71 48 -149 48zM246 1655l403 342l402 -342l-164 -168l-238 196l-237 -196z" />
    <glyph glyph-name="scircumflex" unicode="&#x15d;" horiz-adv-x="1257" 
d="M618 1165q-78 1 -122 -31t-43 -75q0 -43 26 -65q62 -51 214 -103t229 -92q185 -94 247 -218q37 -73 37 -161q0 -197 -154 -323t-390 -126t-393 115t-228 320l330 88q31 -90 107 -154t174 -64t144 36t46 80t-16 70q-32 50 -218 113q-185 63 -255 100q-70 36 -131 84
q-124 99 -124 274t154 302t370 127t368 -110t204 -283l-332 -90q-25 90 -95 138q-71 48 -149 48zM246 1655l403 342l402 -342l-164 -168l-238 196l-237 -196z" />
    <glyph glyph-name="Scedilla" unicode="&#x15e;" horiz-adv-x="1257" 
d="M618 1165q-78 1 -122 -31t-43 -75q0 -43 26 -65q62 -51 214 -103t229 -92q185 -94 247 -218q37 -73 37 -161q0 -172 -119 -291t-319 -149l-35 -95q90 2 157 -58q66 -60 66 -168t-70 -163t-175 -55h-254l69 178h185q59 0 59 45t-59 49h-219l90 260q-197 18 -335 131
t-206 302l330 88q31 -90 107 -154t174 -64t144 36t46 80t-16 70q-32 50 -218 113q-185 63 -255 100q-70 36 -131 84q-124 99 -124 274t154 302t370 127t368 -110t204 -283l-332 -90q-25 90 -95 138q-71 48 -149 48z" />
    <glyph glyph-name="scedilla" unicode="&#x15f;" horiz-adv-x="1257" 
d="M618 1165q-78 1 -122 -31t-43 -75q0 -43 26 -65q62 -51 214 -103t229 -92q185 -94 247 -218q37 -73 37 -161q0 -168 -112 -285t-303 -151l-37 -99q90 2 156 -58t67 -168q0 -108 -70 -163t-176 -55h-254l70 178h184q59 0 60 47q0 43 -60 47h-219l88 260q-203 12 -346 126
t-213 307l330 88q31 -90 107 -154t174 -64t144 36t46 80t-16 70q-32 50 -218 113q-185 63 -255 100q-70 36 -131 84q-124 99 -124 274t154 302t370 127t368 -110t204 -283l-332 -90q-25 90 -95 138q-71 48 -149 48z" />
    <glyph glyph-name="Scaron" unicode="&#x160;" horiz-adv-x="1257" 
d="M618 1165q-78 1 -122 -31t-43 -75q0 -43 26 -65q62 -51 214 -103t229 -92q185 -94 247 -218q37 -73 37 -161q0 -197 -154 -323t-390 -126t-393 115t-228 320l330 88q31 -90 107 -154t174 -64t144 36t46 80t-16 70q-32 50 -218 113q-185 63 -255 100q-70 36 -131 84
q-124 99 -124 274t154 302t370 127t368 -110t204 -283l-332 -90q-25 90 -95 138q-71 48 -149 48zM254 1823l166 168l237 -197l238 197l164 -168l-402 -342z" />
    <glyph glyph-name="scaron" unicode="&#x161;" horiz-adv-x="1257" 
d="M618 1165q-78 1 -122 -31t-43 -75q0 -43 26 -65q62 -51 214 -103t229 -92q185 -94 247 -218q37 -73 37 -161q0 -197 -154 -323t-390 -126t-393 115t-228 320l330 88q31 -90 107 -154t174 -64t144 36t46 80t-16 70q-32 50 -218 113q-185 63 -255 100q-70 36 -131 84
q-124 99 -124 274t154 302t370 127t368 -110t204 -283l-332 -90q-25 90 -95 138q-71 48 -149 48zM274 1823l166 168l238 -197l237 197l164 -168l-401 -342z" />
    <glyph glyph-name="Tcedilla" unicode="&#x162;" horiz-adv-x="1251" 
d="M795 0h-103l-43 -115q90 2 157 -58q66 -60 66 -168t-70 -163t-175 -55h-254l69 178h185q59 0 59 45t-59 49h-219l98 287h-55v1112h-431v322h1211v-322h-436v-1112z" />
    <glyph glyph-name="tcedilla" unicode="&#x163;" horiz-adv-x="1251" 
d="M795 0h-103l-43 -115q90 2 157 -58q66 -60 66 -168t-70 -163t-175 -55h-254l69 178h185q59 0 59 45t-59 49h-219l98 287h-55v1112h-431v322h1211v-322h-436v-1112z" />
    <glyph glyph-name="Tcaron" unicode="&#x164;" horiz-adv-x="1251" 
d="M20 1434h1211v-322h-436v-1112h-344v1112h-431v322zM1061 1823l-402 -342l-403 342l166 168l237 -197l238 197z" />
    <glyph glyph-name="tcaron" unicode="&#x165;" horiz-adv-x="1251" 
d="M20 1434h1211v-322h-436v-1112h-344v1112h-431v322zM1061 1823l-402 -342l-403 342l166 168l237 -197l238 197z" />
    <glyph glyph-name="Tbar" unicode="&#x166;" horiz-adv-x="1251" 
d="M1231 1112h-436v-246h206v-260h-206v-606h-344v606h-207v260h207v246h-431v322h1211v-322z" />
    <glyph glyph-name="tbar" unicode="&#x167;" horiz-adv-x="1251" 
d="M1231 1112h-436v-246h206v-260h-206v-606h-344v606h-207v260h207v246h-431v322h1211v-322z" />
    <glyph glyph-name="Umacron" unicode="&#x16a;" horiz-adv-x="1531" 
d="M1055 1434h344v-797q0 -317 -172 -491t-462 -175q-290 0 -461 174t-171 492v797h344v-789q0 -352 289 -352t289 352v789zM422 1833h711v-264h-711v264z" />
    <glyph glyph-name="umacron" unicode="&#x16b;" horiz-adv-x="1531" 
d="M1055 1434h344v-797q0 -317 -172 -491t-462 -175q-290 0 -461 174t-171 492v797h344v-789q0 -352 289 -352t289 352v789zM422 1833h711v-264h-711v264z" />
    <glyph glyph-name="Ubreve" unicode="&#x16c;" horiz-adv-x="1531" 
d="M1055 1434h344v-797q0 -317 -172 -491t-462 -175q-290 0 -461 174t-171 492v797h344v-789q0 -352 289 -352t289 352v789zM762 1520q-148 0 -256 89t-139 230h249q14 -45 54 -77t97 -32q56 0 97 32t54 77h245q-33 -141 -143 -230t-258 -89z" />
    <glyph glyph-name="ubreve" unicode="&#x16d;" horiz-adv-x="1531" 
d="M1055 1434h344v-797q0 -317 -172 -491t-462 -175q-290 0 -461 174t-171 492v797h344v-789q0 -352 289 -352t289 352v789zM762 1520q-148 0 -256 89t-139 230h249q14 -45 54 -77t97 -32q56 0 97 32t54 77h245q-33 -141 -143 -230t-258 -89z" />
    <glyph glyph-name="Uring" unicode="&#x16e;" horiz-adv-x="1531" 
d="M1055 1434h344v-797q0 -317 -172 -491t-462 -175q-290 0 -461 174t-171 492v797h344v-789q0 -352 289 -352t289 352v789zM770 1587q45 0 78 33t33 78t-33 78q-33 32 -78 32t-78 -32t-33 -78q0 -45 33 -78t78 -33zM768 1386q-127 0 -218 92t-91 216q0 125 91 216t218 91
t217 -90t90 -217q0 -128 -90 -218t-217 -90z" />
    <glyph glyph-name="uring" unicode="&#x16f;" horiz-adv-x="1531" 
d="M1055 1434h344v-797q0 -317 -172 -491t-462 -175q-290 0 -461 174t-171 492v797h344v-789q0 -352 289 -352t289 352v789zM770 1587q45 0 78 33t33 78t-33 78q-33 32 -78 32t-78 -32t-33 -78q0 -45 33 -78t78 -33zM768 1386q-127 0 -218 92t-91 216q0 125 91 216t218 91
t217 -90t90 -217q0 -128 -90 -218t-217 -90z" />
    <glyph glyph-name="Uhungarumlaut" unicode="&#x170;" horiz-adv-x="1531" 
d="M1055 1434h344v-797q0 -317 -172 -491t-462 -175q-290 0 -461 174t-171 492v797h344v-789q0 -352 289 -352t289 352v789zM750 1614l-301 -125l-99 180l490 262l78 -155l290 155l117 -231l-508 -211z" />
    <glyph glyph-name="uhungarumlaut" unicode="&#x171;" horiz-adv-x="1531" 
d="M1055 1434h344v-797q0 -317 -172 -491t-462 -175q-290 0 -461 174t-171 492v797h344v-789q0 -352 289 -352t289 352v789zM750 1614l-301 -125l-99 180l490 262l78 -155l290 155l117 -231l-508 -211z" />
    <glyph glyph-name="Uogonek" unicode="&#x172;" horiz-adv-x="1531" 
d="M1399 1434v-797q-1 -241 -101 -401t-280 -224q-176 -74 -176 -190q0 -49 32 -82t86 -33q52 0 99 35t74 88l174 -115q-47 -96 -143 -158t-199 -63q-152 0 -256 82t-105 217q0 100 78 182q-256 25 -402 197t-147 465v797h344v-789q0 -352 289 -352t289 352v789h344z" />
    <glyph glyph-name="uogonek" unicode="&#x173;" horiz-adv-x="1531" 
d="M1399 1434v-797q-1 -241 -101 -401t-280 -224q-176 -74 -176 -190q0 -49 32 -82t86 -33q52 0 99 35t74 88l174 -115q-47 -96 -143 -158t-199 -63q-152 0 -256 82t-105 217q0 100 78 182q-256 25 -402 197t-147 465v797h344v-789q0 -352 289 -352t289 352v789h344z" />
    <glyph glyph-name="Wcircumflex" unicode="&#x174;" horiz-adv-x="2152" 
d="M1745 1434h366l-434 -1434h-323l-213 662q-26 79 -58 212l-6 29h-2l-6 -29q-24 -116 -57 -212l-213 -662h-324l-434 1434h367l176 -676q14 -58 28 -118t23 -87l6 -27h2l8 27q21 78 66 205l198 540h322l199 -540q45 -134 65 -205l8 -27h2l9 27q25 110 49 205zM666 1655
l403 342l401 -342l-163 -168l-238 196l-238 -196z" />
    <glyph glyph-name="wcircumflex" unicode="&#x175;" horiz-adv-x="2152" 
d="M1745 1434h366l-434 -1434h-323l-213 662q-26 79 -58 212l-6 29h-2l-6 -29q-24 -116 -57 -212l-213 -662h-324l-434 1434h367l176 -676q14 -58 28 -118t23 -87l6 -27h2l8 27q21 78 66 205l198 540h322l199 -540q45 -134 65 -205l8 -27h2l9 27q25 110 49 205zM645 1655
l404 342l401 -342l-164 -168l-237 196l-238 -196z" />
    <glyph glyph-name="Ycircumflex" unicode="&#x176;" horiz-adv-x="1480" 
d="M911 0h-342v635l-549 799h386l260 -383q70 -104 73 -105h2q4 0 74 105l260 383h385l-549 -799v-635zM328 1655l403 342l402 -342l-164 -168l-238 196l-237 -196z" />
    <glyph glyph-name="ycircumflex" unicode="&#x177;" horiz-adv-x="1480" 
d="M911 0h-342v635l-549 799h386l260 -383q70 -104 73 -105h2q4 0 74 105l260 383h385l-549 -799v-635zM330 1655l403 342l402 -342l-164 -168l-238 196l-237 -196z" />
    <glyph glyph-name="Ydieresis" unicode="&#x178;" horiz-adv-x="1480" 
d="M911 0h-342v635l-549 799h386l260 -383q70 -104 73 -105h2q4 0 74 105l260 383h385l-549 -799v-635zM1008 1573q-63 0 -108 43q-44 43 -44 106q0 64 44 108t108 44t107 -44q44 -44 44 -108t-44 -106q-44 -43 -107 -43zM456 1573q-64 0 -109 43q-44 43 -44 106
q0 64 45 108q44 44 108 44t107 -44t43 -108t-43 -106q-43 -43 -107 -43z" />
    <glyph glyph-name="Zacute" unicode="&#x179;" horiz-adv-x="1458" 
d="M143 1112v322h1192v-322l-610 -657q-27 -29 -61 -64t-54 -55l-18 -19l2 -2h6l79 4l88 3h568v-322h-1212v322l639 671q32 35 110 105l23 18l-2 2h-16q-28 -4 -90 -4l-117 -2h-527zM983 1931l117 -231l-508 -211l-98 180z" />
    <glyph glyph-name="zacute" unicode="&#x17a;" horiz-adv-x="1458" 
d="M143 1112v322h1192v-322l-610 -657q-27 -29 -61 -64t-54 -55l-18 -19l2 -2h6l79 4l88 3h568v-322h-1212v322l639 671q32 35 110 105l23 18l-2 2h-16q-28 -4 -90 -4l-117 -2h-527zM983 1931l117 -231l-508 -211l-98 180z" />
    <glyph glyph-name="Zdotaccent" unicode="&#x17b;" horiz-adv-x="1458" 
d="M143 1112v322h1192v-322l-610 -657q-27 -29 -61 -64t-54 -55l-18 -19l2 -2h6l79 4l88 3h568v-322h-1212v322l639 671q32 35 110 105l23 18l-2 2h-16q-28 -4 -90 -4l-117 -2h-527zM750 1571q-63 0 -108 44q-44 44 -44 107q0 64 44 108t108 44t107 -44q44 -44 44 -108
t-44 -107q-44 -44 -107 -44z" />
    <glyph glyph-name="zdotaccent" unicode="&#x17c;" horiz-adv-x="1458" 
d="M143 1112v322h1192v-322l-610 -657q-27 -29 -61 -64t-54 -55l-18 -19l2 -2h6l79 4l88 3h568v-322h-1212v322l639 671q32 35 110 105l23 18l-2 2h-16q-28 -4 -90 -4l-117 -2h-527zM750 1571q-63 0 -108 44q-44 44 -44 107q0 64 44 108t108 44t107 -44q44 -44 44 -108
t-44 -107q-44 -44 -107 -44z" />
    <glyph glyph-name="Zcaron" unicode="&#x17d;" horiz-adv-x="1458" 
d="M143 1112v322h1192v-322l-610 -657q-27 -29 -61 -64t-54 -55l-18 -19l2 -2h6l79 4l88 3h568v-322h-1212v322l639 671q32 35 110 105l23 18l-2 2h-16q-28 -4 -90 -4l-117 -2h-527zM346 1823l166 168l238 -197l237 197l164 -168l-401 -342z" />
    <glyph glyph-name="zcaron" unicode="&#x17e;" horiz-adv-x="1458" 
d="M143 1112v322h1192v-322l-610 -657q-27 -29 -61 -64t-54 -55l-18 -19l2 -2h6l79 4l88 3h568v-322h-1212v322l639 671q32 35 110 105l23 18l-2 2h-16q-28 -4 -90 -4l-117 -2h-527zM346 1823l166 168l238 -197l237 197l164 -168l-401 -342z" />
    <glyph glyph-name="Scommaaccent" unicode="&#x218;" horiz-adv-x="1257" 
d="M471 -223q0 57 43 100t104 43q62 0 104 -46t42 -125t-60 -176t-153 -169h-113q50 30 96 106t46 121l28 9l-28 4q-43 4 -76 40t-33 93zM618 1165q-78 1 -122 -31t-43 -75q0 -43 26 -65q62 -51 214 -103t229 -92q185 -94 247 -218q37 -73 37 -161q0 -197 -154 -323
t-390 -126t-393 115t-228 320l330 88q31 -90 107 -154t174 -64t144 36t46 80t-16 70q-32 50 -218 113q-185 63 -255 100q-70 36 -131 84q-124 99 -124 274t154 302t370 127t368 -110t204 -283l-332 -90q-25 90 -95 138q-71 48 -149 48z" />
    <glyph glyph-name="scommaaccent" unicode="&#x219;" horiz-adv-x="1257" 
d="M471 -223q0 57 43 100t104 43q62 0 104 -46t42 -125t-60 -176t-153 -169h-113q50 30 96 106t46 121l28 9l-28 4q-43 4 -76 40t-33 93zM618 1165q-78 1 -122 -31t-43 -75q0 -43 26 -65q62 -51 214 -103t229 -92q185 -94 247 -218q37 -73 37 -161q0 -197 -154 -323
t-390 -126t-393 115t-228 320l330 88q31 -90 107 -154t174 -64t144 36t46 80t-16 70q-32 50 -218 113q-185 63 -255 100q-70 36 -131 84q-124 99 -124 274t154 302t370 127t368 -110t204 -283l-332 -90q-25 90 -95 138q-71 48 -149 48z" />
    <glyph glyph-name="uni021A" unicode="&#x21a;" horiz-adv-x="1251" 
d="M645 -80q61 0 103 -46t43 -125q-1 -79 -61 -176t-152 -169h-113q49 31 95 107t46 120l29 9l-29 4q-43 4 -76 40q-32 36 -32 93t43 100t104 43zM20 1434h1211v-322h-436v-1112h-344v1112h-431v322z" />
    <glyph glyph-name="uni021B" unicode="&#x21b;" horiz-adv-x="1251" 
d="M436 -223q0 57 43 100t105 43t103 -46q42 -46 42 -125t-60 -176t-153 -169h-113q49 31 96 107q46 76 46 120l28 9l-28 4q-43 4 -76 40t-33 93zM20 1434h1211v-322h-436v-1112h-344v1112h-431v322z" />
    <glyph glyph-name="dotlessj" unicode="&#x237;" horiz-adv-x="1390" 
d="M913 1434h344v-797q0 -315 -177 -491t-468 -175q-202 1 -364 103t-228 264l338 90q78 -135 254 -135q141 0 222 89q80 89 79 243v809z" />
    <glyph glyph-name="circumflex" unicode="&#x2c6;" horiz-adv-x="772" 
d="M-51 1655l403 342l402 -342l-164 -168l-238 196l-237 -196z" />
    <glyph glyph-name="caron" unicode="&#x2c7;" horiz-adv-x="772" 
d="M-51 1823l166 168l237 -197l238 197l164 -168l-402 -342z" />
    <glyph glyph-name="breve" unicode="&#x2d8;" horiz-adv-x="708" 
d="M308 1520q-148 0 -257 89q-108 89 -139 230h250q14 -45 54 -77t96 -32t98 32q41 32 53 77h246q-33 -141 -143 -230t-258 -89z" />
    <glyph glyph-name="dotaccent" unicode="&#x2d9;" horiz-adv-x="354" 
d="M139 1571q-63 0 -107 44t-44 107q0 64 44 108t107 44t107 -44t45 -108q-1 -64 -45 -107q-44 -44 -107 -44z" />
    <glyph glyph-name="ring" unicode="&#x2da;" horiz-adv-x="598" 
d="M268 1526q45 0 78 33t33 77t-33 78q-33 33 -78 33t-78 -33q-32 -33 -32 -78q0 -46 32 -78t78 -32zM266 1325q-127 0 -218 91t-91 216t91 216t218 91t217 -90t90 -217t-90 -217t-217 -90z" />
    <glyph glyph-name="ogonek" unicode="&#x2db;" horiz-adv-x="1228" 
d="M524 -506q-168 0 -274 89t-106 231t88 233q89 90 159 90l223 -137q-86 0 -158 -44t-71 -126q0 -51 37 -87t97 -36q123 0 183 117l177 -117q-55 -101 -151 -157t-204 -56z" />
    <glyph glyph-name="tilde" unicode="&#x2dc;" horiz-adv-x="1050" 
d="M725 1835h266q0 -139 -91 -229t-232 -90q-82 0 -180 63t-139 63q-39 0 -65 -24t-26 -64h-266q0 140 91 230t232 90q68 0 128 -32q59 -32 107 -64t86 -31t64 25t25 63z" />
    <glyph glyph-name="hungarumlaut" unicode="&#x2dd;" horiz-adv-x="1026" 
d="M967 1700l-508 -211l-68 125l-301 -125l-98 180l489 262l78 -155l291 155z" />
    <glyph glyph-name="commaaccentcomb" unicode="&#x326;" horiz-adv-x="0" 
d="M119 -223q0 57 43 100t104 43q62 0 104 -46t42 -125t-60 -176t-153 -169h-113q49 30 95 106t46 121l29 9l-29 4q-43 4 -75 40t-33 93z" />
    <glyph glyph-name="Wgrave" unicode="&#x1e80;" horiz-adv-x="2152" 
d="M1745 1434h366l-434 -1434h-323l-213 662q-26 79 -58 212l-6 29h-2l-6 -29q-24 -116 -57 -212l-213 -662h-324l-434 1434h367l176 -676q14 -58 28 -118t23 -87l6 -27h2l8 27q21 78 66 205l198 540h322l199 -540q45 -134 65 -205l8 -27h2l9 27q25 110 49 205zM1186 1489
l-508 211l117 231l489 -262z" />
    <glyph glyph-name="wgrave" unicode="&#x1e81;" horiz-adv-x="2152" 
d="M1745 1434h366l-434 -1434h-323l-213 662q-26 79 -58 212l-6 29h-2l-6 -29q-24 -116 -57 -212l-213 -662h-324l-434 1434h367l176 -676q14 -58 28 -118t23 -87l6 -27h2l8 27q21 78 66 205l198 540h322l199 -540q45 -134 65 -205l8 -27h2l9 27q25 110 49 205zM1165 1489
l-508 211l117 231l490 -262z" />
    <glyph glyph-name="Wacute" unicode="&#x1e82;" horiz-adv-x="2152" 
d="M1745 1434h366l-434 -1434h-323l-213 662q-26 79 -58 212l-6 29h-2l-6 -29q-24 -116 -57 -212l-213 -662h-324l-434 1434h367l176 -676q14 -58 28 -118t23 -87l6 -27h2l8 27q21 78 66 205l198 540h322l199 -540q45 -134 65 -205l8 -27h2l9 27q25 110 49 205zM1311 1931
l116 -231l-507 -211l-99 180z" />
    <glyph glyph-name="wacute" unicode="&#x1e83;" horiz-adv-x="2152" 
d="M1745 1434h366l-434 -1434h-323l-213 662q-26 79 -58 212l-6 29h-2l-6 -29q-24 -116 -57 -212l-213 -662h-324l-434 1434h367l176 -676q14 -58 28 -118t23 -87l6 -27h2l8 27q21 78 66 205l198 540h322l199 -540q45 -134 65 -205l8 -27h2l9 27q25 110 49 205zM1290 1931
l117 -231l-508 -211l-98 180z" />
    <glyph glyph-name="Wdieresis" unicode="&#x1e84;" horiz-adv-x="2152" 
d="M1745 1434h366l-434 -1434h-323l-213 662q-26 79 -58 212l-6 29h-2l-6 -29q-24 -116 -57 -212l-213 -662h-324l-434 1434h367l176 -676q14 -58 28 -118t23 -87l6 -27h2l8 27q21 78 66 205l198 540h322l199 -540q45 -134 65 -205l8 -27h2l9 27q25 110 49 205zM1346 1573
q-63 0 -108 43q-44 43 -44 106q0 64 44 108t108 44t107 -44q44 -44 44 -108t-44 -106q-44 -43 -107 -43zM794 1573q-64 0 -109 43q-44 43 -44 106q0 64 45 108q44 44 108 44t107 -44t43 -108t-43 -106q-43 -43 -107 -43z" />
    <glyph glyph-name="wdieresis" unicode="&#x1e85;" horiz-adv-x="2152" 
d="M1745 1434h366l-434 -1434h-323l-213 662q-26 79 -58 212l-6 29h-2l-6 -29q-24 -116 -57 -212l-213 -662h-324l-434 1434h367l176 -676q14 -58 28 -118t23 -87l6 -27h2l8 27q21 78 66 205l198 540h322l199 -540q45 -134 65 -205l8 -27h2l9 27q25 110 49 205zM1325 1573
q-63 0 -107 43t-44 106q0 64 44 108t107 44t107 -44t45 -108q-1 -64 -45 -106q-44 -43 -107 -43zM774 1874q62 0 106 -44t44 -108t-44 -106q-44 -43 -108 -43t-108 43t-43 106q0 64 45 108t108 44z" />
    <glyph glyph-name="Germandbls" unicode="&#x1e9e;" horiz-adv-x="1699" 
d="M504 1112v-1112h-344v1434h1331l-201 -381q-100 -193 -100 -203l2 -2h8q172 0 300 -123t128 -307t-139 -315q-139 -132 -371 -132q-162 0 -294 76t-206 201l326 88q70 -74 159 -74t134 49t45 122t-50 120t-140 47h-234v248l60 127q12 25 29 63t28 56l8 20l-2 2h-8l-88 -4
h-381z" />
    <glyph glyph-name="Ygrave" unicode="&#x1ef2;" horiz-adv-x="1480" 
d="M911 0h-342v635l-549 799h386l260 -383q70 -104 73 -105h2q4 0 74 105l260 383h385l-549 -799v-635zM848 1489l-508 211l117 231l489 -262z" />
    <glyph glyph-name="ygrave" unicode="&#x1ef3;" horiz-adv-x="1480" 
d="M911 0h-342v635l-549 799h386l260 -383q70 -104 73 -105h2q4 0 74 105l260 383h385l-549 -799v-635zM850 1489l-508 211l117 231l489 -262z" />
    <glyph glyph-name="uni2007" unicode="&#x2007;" 
 />
    <glyph glyph-name="uni2009" unicode="&#x2009;" horiz-adv-x="245" 
 />
    <glyph glyph-name="uni200A" unicode="&#x200a;" horiz-adv-x="81" 
 />
    <glyph glyph-name="endash" unicode="&#x2013;" horiz-adv-x="1202" 
d="M160 887h882v-322h-882v322z" />
    <glyph glyph-name="emdash" unicode="&#x2014;" horiz-adv-x="2121" 
d="M160 887h1802v-322h-1802v322z" />
    <glyph glyph-name="quoteleft" unicode="&#x2018;" horiz-adv-x="677" 
d="M481 1046q0 -62 -47 -110q-47 -47 -115 -47q-67 0 -113 50t-46 137t66 195q67 108 167 187h125q-52 -33 -104 -118t-52 -134l-30 -8l30 -4q47 -6 83 -46t36 -102z" />
    <glyph glyph-name="quoteright" unicode="&#x2019;" horiz-adv-x="677" 
d="M358 1458q68 0 114 -50t46 -137t-66 -195t-167 -187h-125q53 33 104 118t51 134l31 8l-31 4q-47 6 -83 46q-36 41 -36 103t48 109q46 47 114 47z" />
    <glyph glyph-name="quotesinglbase" unicode="&#x201a;" horiz-adv-x="677" 
d="M358 299q68 0 114 -50t46 -137t-66 -195t-167 -187h-125q53 33 104 118t51 134l31 8l-31 4q-47 6 -83 46t-36 102t48 110q46 47 114 47z" />
    <glyph glyph-name="quotedblleft" unicode="&#x201c;" horiz-adv-x="1148" 
d="M952 1046q0 -62 -47 -110q-47 -47 -115 -47t-113 50q-46 50 -46 137t66 195q67 108 167 187h125q-53 -33 -104 -118t-51 -134l-31 -8l31 -4q46 -6 82 -46t36 -102zM481 1046q0 -62 -47 -110q-47 -47 -115 -47q-67 0 -113 50t-46 137t66 195q67 108 167 187h125
q-52 -33 -104 -118t-52 -134l-30 -8l30 -4q47 -6 83 -46t36 -102z" />
    <glyph glyph-name="quotedblright" unicode="&#x201d;" horiz-adv-x="1148" 
d="M830 1458q68 0 113 -50q46 -50 46 -137q-1 -87 -67 -195t-166 -187h-125q53 33 104 118t51 134l31 8l-31 4q-47 6 -83 46q-35 41 -35 103t47 109t115 47zM358 1458q68 0 114 -50t46 -137t-66 -195t-167 -187h-125q53 33 104 118t51 134l31 8l-31 4q-47 6 -83 46
q-36 41 -36 103t48 109q46 47 114 47z" />
    <glyph glyph-name="quotedblbase" unicode="&#x201e;" horiz-adv-x="1148" 
d="M830 299q68 0 113 -50q46 -50 46 -137q-1 -87 -67 -195t-166 -187h-125q53 33 104 118t51 134l31 8l-31 4q-47 6 -83 46q-35 40 -35 102t47 110q47 47 115 47zM358 299q68 0 114 -50t46 -137t-66 -195t-167 -187h-125q53 33 104 118t51 134l31 8l-31 4q-47 6 -83 46
t-36 102t48 110q46 47 114 47z" />
    <glyph glyph-name="dagger" unicode="&#x2020;" horiz-adv-x="1077" 
d="M1057 1106v-289h-369v-194q0 -314 -30 -545q-9 -78 -11 -78h-221q-9 0 -25 234t-16 389v194h-365v289h365v328h303v-328h369z" />
    <glyph glyph-name="daggerdbl" unicode="&#x2021;" horiz-adv-x="1077" 
d="M688 817v-203h369v-288h-377q-20 -326 -33 -326h-221q-12 0 -33 326h-373v288h365v203h-365v289h365v328h303v-328h369v-289h-369z" />
    <glyph glyph-name="bullet" unicode="&#x2022;" horiz-adv-x="843" 
d="M423 463q-111 0 -187 77q-76 76 -76 186t77 186t187 75q110 0 184 -76q76 -75 76 -185t-76 -186t-185 -77z" />
    <glyph glyph-name="ellipsis" unicode="&#x2026;" horiz-adv-x="1597" 
d="M1341 -27q-55 0 -94 39t-39 93q0 53 39 93t94 40t95 -39t39 -93q1 -54 -39 -94q-40 -39 -95 -39zM788 -27q-55 0 -94 39t-39 93q0 53 39 93t94 40q54 0 94 -39t40 -93t-40 -94q-40 -39 -94 -39zM256 -27q-55 0 -94 39t-39 93q0 53 39 93t94 40t94 -39t39 -93t-39 -94
q-39 -39 -94 -39z" />
    <glyph glyph-name="perthousand" unicode="&#x2030;" horiz-adv-x="2740" 
d="M2306 211q61 0 99 53t38 132t-38 132q-38 54 -99 54t-100 -54t-39 -133q0 -78 39 -131t100 -53zM1470 211q61 0 100 53q38 53 38 132t-38 132q-38 54 -100 54t-100 -54q-39 -54 -39 -133q0 -78 39 -131t100 -53zM2305 -16q-161 0 -262 116t-101 295q0 180 101 297
t262 117t262 -117t101 -297q0 -179 -100 -295q-102 -116 -263 -116zM1469 -16q-161 0 -262 116t-101 295q0 180 101 297t262 117t263 -117t101 -297q0 -180 -101 -296q-102 -115 -263 -115zM436 852q61 0 100 53q38 53 38 132t-38 132t-100 53t-100 -54q-39 -54 -39 -132
t39 -131t100 -53zM328 0l1028 1434h221l-1028 -1434h-221zM435 625q-161 -1 -262 115t-101 296t101 297t262 117t262 -117t101 -297t-100 -296q-102 -116 -263 -115z" />
    <glyph glyph-name="guilsinglleft" unicode="&#x2039;" horiz-adv-x="989" 
d="M643 1200l184 -186l-307 -293l309 -293l-188 -188l-481 481z" />
    <glyph glyph-name="guilsinglright" unicode="&#x203a;" horiz-adv-x="989" 
d="M346 1200l483 -479l-481 -481l-188 188l309 293l-307 293z" />
    <glyph glyph-name="fraction" unicode="&#x2044;" horiz-adv-x="266" 
d="M-492 0l1029 1434h221l-1028 -1434h-222z" />
    <glyph glyph-name="Euro" unicode="&#x20ac;" horiz-adv-x="1642" 
d="M908 -25q-232 1 -422 135t-267 355h-147v221h106v62h-104v221h145q76 221 266 355t416 134q225 0 397 -102t267 -277l-348 -86q-104 131 -300 131t-319 -155h342v-221h-424q-2 -10 -2 -30t2 -32h422v-221h-338q119 -152 320 -152q104 0 191 45t134 123l344 -86
q-88 -193 -268 -307q-181 -114 -413 -113z" />
    <glyph glyph-name="uni20B9" unicode="&#x20b9;" horiz-adv-x="1236" 
d="M1176 1174h-254q23 -39 39 -93h215v-250h-213q-31 -123 -117 -209t-217 -126l354 -496h-391l-330 477v250h164q109 0 164 104h-430v250h430q-55 92 -164 93h-266v260h1016v-260z" />
    <glyph glyph-name="afii61352" unicode="&#x2116;" horiz-adv-x="2267" 
d="M1565 641h661v-205h-661v205zM1749 1107q0 -69 41 -112q42 -43 106 -43t105 43t41 112t-41 112t-105 43t-106 -43q-41 -43 -41 -112zM1102 1434h344v-1434h-324l-293 399q-55 76 -138 193t-134 188l-53 72h-2v-70l2 -465v-317h-344v1434h323l305 -410q39 -53 118 -163
t138 -189l58 -80h2v75l-2 439v328zM1544 1106q0 152 102 252t248 100q148 0 250 -100t102 -251t-102 -251t-250 -100t-248 99q-102 99 -102 251z" />
    <glyph glyph-name="trademark" unicode="&#x2122;" horiz-adv-x="1613" 
d="M936 958v-190h-197v666h189l108 -162q16 -23 70 -131h2q25 66 70 131l108 162h189v-666h-197v190l4 144l2 16h-2q-2 0 -82 -117l-51 -77h-84l-51 77q-76 117 -82 117h-2v-16q6 -54 6 -144zM20 1237v197h623v-197h-209v-469h-205v469h-209z" />
    <glyph glyph-name="oneeighth" unicode="&#x215b;" horiz-adv-x="1558" 
d="M1122 228q0 -38 33 -64t81 -27q48 0 80 27q32 28 32 66t-33 64t-81 26t-80 -28q-32 -26 -32 -64zM1139 591q-1 -31 27 -53t70 -22t69 22t27 54t-28 53t-69 21t-69 -22t-27 -53zM1538 210q0 -89 -86 -157q-86 -67 -217 -67t-217 68t-86 156q0 89 46 139t107 71v2
q-41 10 -79 58t-37 128q0 80 74 141q75 60 192 60t191 -60q74 -59 75 -139q0 -80 -39 -128t-78 -60v-2q62 -20 108 -70t46 -140zM133 0l1028 1434h221l-1028 -1434h-221zM262 1006q0 87 12 141v8h-2q-2 0 -15 -21t-58 -61l-41 -37l-138 121l306 277h155v-793h-219v365z" />
    <glyph glyph-name="threeeighths" unicode="&#x215c;" horiz-adv-x="1681" 
d="M1245 228q0 -38 33 -64t81 -27q48 0 80 27q31 28 31 66t-32 64q-33 26 -81 26t-80 -28q-32 -26 -32 -64zM1262 591q0 -31 28 -53t69 -22q43 0 69 22t26 54t-28 53t-68 21t-68 -22t-28 -53zM1661 210q0 -89 -86 -157q-86 -67 -217 -67t-217 68t-86 156q0 89 46 139t107 71
v2q-41 10 -79 58q-37 48 -37 128t74 141q75 60 192 60q118 0 192 -60q74 -59 74 -139t-39 -128t-78 -60v-2q61 -20 107 -70t47 -140zM256 0l1028 1434h221l-1028 -1434h-221zM651 1226q0 -88 -52 -132t-105 -45v-2q70 -1 120 -45t52 -121q0 -111 -86 -184t-210 -73t-216 66
t-113 166l186 51q23 -98 135 -98q43 -1 70 21t27 59t-29 59t-74 23h-71v151h71q37 0 63 23q25 23 25 53t-24 49q-25 20 -60 21q-95 -1 -124 -101l-183 50q23 106 107 169q84 64 208 64t204 -68q79 -68 79 -156z" />
    <glyph glyph-name="fiveeighths" unicode="&#x215d;" horiz-adv-x="1634" 
d="M1198 228q0 -38 33 -64t81 -27q48 0 80 27q32 28 32 66t-33 64t-81 26t-80 -28q-32 -26 -32 -64zM1311 666q-41 0 -69 -22t-28 -54t28 -52q28 -22 70 -22t68 22t27 54t-27 54q-28 20 -69 20zM1614 210q0 -89 -86 -157q-86 -67 -217 -67t-217 68t-86 156q0 89 46 139
t107 71v2q-41 10 -79 58t-38 128t75 140t192 61q117 0 191 -60q74 -59 75 -139q0 -80 -39 -128t-78 -60v-2q62 -20 108 -70t46 -140zM1237 1434h221l-1028 -1434h-221zM649 905q0 -119 -87 -199t-211 -81q-124 1 -210 67t-100 154l192 53q23 -90 107 -90q49 0 80 28
q31 27 31 71t-31 73q-30 29 -90 29t-88 -60l-179 49l78 435h461v-191h-309q-10 -40 -37 -104l2 -2q33 33 90 32q139 -1 220 -73t81 -191z" />
    <glyph glyph-name="seveneighths" unicode="&#x215e;" horiz-adv-x="1435" 
d="M999 228q0 -38 33 -64t81 -27q48 0 80 27q32 28 32 66t-33 64t-81 26t-80 -28q-32 -26 -32 -64zM1016 591q0 -31 28 -53t69 -22q42 0 69 22q26 22 26 54t-27 53q-28 21 -69 21q-40 0 -68 -22t-28 -53zM1415 210q0 -89 -86 -157q-86 -67 -217 -67t-217 68t-86 156
q0 89 46 139t108 71v2q-41 10 -79 58t-38 128t75 140t191 61q116 0 192 -60q75 -60 74 -153q0 -66 -38 -114t-78 -60v-2q61 -20 107 -70t46 -140zM20 1243v191h615v-119l-369 -674h-215l254 465q46 89 92 135l4 6l-2 2h-8q-16 -4 -55 -4l-92 -2h-224zM10 0l1028 1434h222
l-1029 -1434h-221z" />
    <glyph glyph-name="minus" unicode="&#x2212;" 
d="M252 866h928v-280h-928v280z" />
    <glyph glyph-name="notequal" unicode="&#x2260;" 
d="M1180 811h-262l-107 -211h369v-281h-510l-103 -200h-284l102 200h-133v281h278l107 211h-385v281h530l113 221h276l-112 -221h121v-281z" />
    <glyph glyph-name="lessequal" unicode="&#x2264;" 
d="M1176 262v-280h-928v280h928zM1014 399h-400l-376 353l540 499h389l-510 -499z" />
    <glyph glyph-name="greaterequal" unicode="&#x2265;" 
d="M254 262h928v-280h-928v280zM416 399l356 353l-510 499h389l541 -499l-377 -353h-399z" />
    <glyph glyph-name="lozenge" unicode="&#x25ca;" horiz-adv-x="1490" 
d="M745 1075l-358 -358l358 -359l359 359zM745 -29l-745 746l745 745l746 -745z" />
    <glyph glyph-name="Cacute.loclPLK" horiz-adv-x="1544" 
d="M815 1122q-176 0 -280 -112q-105 -112 -105 -294q0 -181 108 -291t277 -110q103 0 193 47t135 121l348 -90q-90 -193 -271 -307t-405 -115q-311 0 -527 212t-216 534q0 321 216 533t527 212q209 0 382 -104t269 -277l-350 -92q-49 61 -132 97t-169 36zM911 1999l250 -139
l-252 -371l-213 121z" />
    <glyph glyph-name="I.ss03" horiz-adv-x="1060" 
d="M702 301h287v-301h-917v301h286v832h-278v301h901v-301h-279v-832z" />
    <glyph glyph-name="IJ.ss03" horiz-adv-x="2420" 
d="M1944 1434h344v-797q0 -315 -178 -491t-468 -175q-202 1 -364 103t-227 264l338 90q78 -135 253 -135q141 0 222 89q80 89 80 243v809zM702 1133v-832h287v-301h-917v301h286v832h-278v301h901v-301h-279z" />
    <glyph glyph-name="IJ.ss03.ss04" horiz-adv-x="2410" 
d="M1333 1434h944v-797q0 -315 -177 -491t-468 -175q-202 1 -364 103t-228 264l338 90q78 -135 254 -135q141 0 221 89t80 243v487h-600v322zM702 1133v-832h287v-301h-917v301h286v832h-278v301h901v-301h-279z" />
    <glyph glyph-name="IJ.ss04" horiz-adv-x="2013" 
d="M936 1434h944v-797q0 -315 -177 -491t-468 -175q-203 1 -365 103t-227 264l338 90q78 -135 254 -135q141 0 221 89t80 243v487h-600v322zM160 0v1434h344v-1434h-344z" />
    <glyph glyph-name="Iacute.ss03" horiz-adv-x="1060" 
d="M702 301h287v-301h-917v301h286v832h-278v301h901v-301h-279v-832zM885 1700l-508 -211l-98 180l489 262z" />
    <glyph glyph-name="Icircumflex.ss03" horiz-adv-x="1060" 
d="M702 301h287v-301h-917v301h286v832h-278v301h901v-301h-279v-832zM526 1683l-237 -196l-166 168l403 342l402 -342l-164 -168z" />
    <glyph glyph-name="Idieresis.ss03" horiz-adv-x="1060" 
d="M702 301h287v-301h-917v301h286v832h-278v301h901v-301h-279v-832zM803 1573q-63 0 -108 43q-44 43 -44 106q0 64 44 108q43 44 107 44t108 -44t44 -108t-44 -106q-44 -43 -107 -43zM250 1573q-64 0 -108 43t-44 106q0 64 45 108t109 44t106 -44q43 -44 43 -108t-43 -106
q-44 -43 -108 -43z" />
    <glyph glyph-name="Idotaccent.ss03" horiz-adv-x="1060" 
d="M702 301h287v-301h-917v301h286v832h-278v301h901v-301h-279v-832zM535 1571q-63 0 -108 44q-44 44 -44 107q0 64 44 108q43 44 107 44t108 -44t44 -108t-44 -107q-44 -44 -107 -44z" />
    <glyph glyph-name="Igrave.ss03" horiz-adv-x="1060" 
d="M702 301h287v-301h-917v301h286v832h-278v301h901v-301h-279v-832zM741 1669l-98 -180l-508 211l117 231z" />
    <glyph glyph-name="Imacron.ss03" horiz-adv-x="1060" 
d="M702 301h287v-301h-917v301h286v832h-278v301h901v-301h-279v-832zM981 1833v-264h-901v264h901z" />
    <glyph glyph-name="Iogonek.ss03" horiz-adv-x="1060" 
d="M989 0h-500q-85 0 -157 -44t-72 -126q0 -51 37 -87t97 -36t109 32q48 32 75 85l176 -117q-56 -101 -152 -157t-203 -56q-168 0 -274 89t-107 247q0 90 54 172v299h286v832h-278v301h901v-301h-279v-832h287v-301z" />
    <glyph glyph-name="J.ss04" horiz-adv-x="1390" 
d="M313 1434h944v-797q0 -315 -177 -491t-468 -175q-202 1 -364 103t-228 264l338 90q78 -135 254 -135q141 0 222 89q80 89 79 243v487h-600v322z" />
    <glyph glyph-name="Jcircumflex.ss04" horiz-adv-x="1390" 
d="M313 1434h944v-797q0 -315 -177 -491t-468 -175q-202 1 -364 103t-228 264l338 90q78 -135 254 -135q141 0 222 89q80 89 79 243v487h-600v322zM754 1683l-238 -196l-166 168l404 342l401 -342l-164 -168z" />
    <glyph glyph-name="N.ss02" horiz-adv-x="1605" 
d="M500 921l4 -169v-752h-344v1434h323l226 -205q389 -352 395 -352h2v8l-2 54v45l-2 119v331h344v-1434h-344v465l-258 219q-68 59 -155 136t-138 122l-51 45h-2v-8z" />
    <glyph glyph-name="Nacute.loclPLK" horiz-adv-x="1605" 
d="M1102 1434h344v-1434h-324l-293 399q-55 76 -138 193t-134 188l-53 72h-2v-70l2 -465v-317h-344v1434h323l305 -410q39 -53 118 -163t138 -189l58 -80h2v75l-2 439v328zM901 1999l250 -139l-252 -371l-213 121z" />
    <glyph glyph-name="Nacute.loclPLK.ss02" horiz-adv-x="1605" 
d="M500 921l4 -169v-752h-344v1434h323l226 -205q389 -352 395 -352h2v8l-2 54v45l-2 119v331h344v-1434h-344v465l-258 219q-68 59 -155 136t-138 122l-51 45h-2v-8zM901 1999l250 -139l-252 -371l-213 121z" />
    <glyph glyph-name="Nacute.ss02" horiz-adv-x="1605" 
d="M500 921l4 -169v-752h-344v1434h323l226 -205q389 -352 395 -352h2v8l-2 54v45l-2 119v331h344v-1434h-344v465l-258 219q-68 59 -155 136t-138 122l-51 45h-2v-8zM1036 1931l117 -231l-508 -211l-98 180z" />
    <glyph glyph-name="Ncaron.ss02" horiz-adv-x="1605" 
d="M500 921l4 -169v-752h-344v1434h323l226 -205q389 -352 395 -352h2v8l-2 54v45l-2 119v331h344v-1434h-344v465l-258 219q-68 59 -155 136t-138 122l-51 45h-2v-8zM399 1823l166 168l238 -197l237 197l164 -168l-401 -342z" />
    <glyph glyph-name="Ncommaaccent.ss02" horiz-adv-x="1605" 
d="M815 -80q61 0 103 -46t43 -125q-1 -79 -61 -176t-152 -169h-113q49 30 95 106t46 121l29 9l-29 4q-43 4 -76 40q-32 36 -32 93t43 100t104 43zM500 921l4 -169v-752h-344v1434h323l226 -205q389 -352 395 -352h2v8l-2 54v45l-2 119v331h344v-1434h-344v465l-258 219
q-68 59 -155 136t-138 122l-51 45h-2v-8z" />
    <glyph glyph-name="Ntilde.ss02" horiz-adv-x="1605" 
d="M500 921l4 -169v-752h-344v1434h323l226 -205q389 -352 395 -352h2v8l-2 54v45l-2 119v331h344v-1434h-344v465l-258 219q-68 59 -155 136t-138 122l-51 45h-2v-8zM1038 1835h267q1 -139 -91 -229t-233 -90q-66 0 -125 32t-108 63q-93 61 -151 7q-26 -25 -26 -64h-266
q0 140 91 230t233 90q86 0 183 -64t136 -63q38 1 64 25t26 63z" />
    <glyph glyph-name="Oacute.loclPLK" horiz-adv-x="1632" 
d="M430 718q0 -181 106 -294t280 -113q173 0 280 113q106 113 106 294t-106 293q-106 111 -280 111t-280 -112t-106 -292zM72 717q0 321 216 533t528 212t528 -212t217 -534q0 -322 -216 -533q-217 -212 -529 -212t-528 212t-216 534zM924 1999l250 -139l-252 -371l-213 121
z" />
    <glyph glyph-name="Q.ss01" horiz-adv-x="1693" 
d="M430 731q0 -179 110 -285t274 -106t274 106t110 284t-111 286t-275 108t-272 -108q-110 -108 -110 -285zM1585 338h47v-338h-819q-311 0 -526 208t-215 523t215 524t526 209t527 -209t216 -524q0 -229 -118 -405l2 -2h6q28 14 139 14z" />
    <glyph glyph-name="Sacute.loclPLK" horiz-adv-x="1257" 
d="M618 1165q-78 1 -122 -31t-43 -75q0 -43 26 -65q62 -51 214 -103t229 -92q185 -94 247 -218q37 -73 37 -161q0 -197 -154 -323t-390 -126t-393 115t-228 320l330 88q31 -90 107 -154t174 -64t144 36t46 80t-16 70q-32 50 -218 113q-185 63 -255 100q-70 36 -131 84
q-124 99 -124 274t154 302t370 127t368 -110t204 -283l-332 -90q-25 90 -95 138q-71 48 -149 48zM756 1999l250 -139l-252 -371l-213 121z" />
    <glyph glyph-name="Y.ss05" horiz-adv-x="1480" 
d="M1186 731v-280h-275v-451h-342v451h-270v280h205l-484 703h386l260 -383q70 -104 73 -105h2q4 0 74 105l260 383h385l-483 -703h209z" />
    <glyph glyph-name="Yacute.ss05" horiz-adv-x="1480" 
d="M1186 731v-280h-275v-451h-342v451h-270v280h205l-484 703h386l260 -383q70 -104 73 -105h2q4 0 74 105l260 383h385l-483 -703h209zM1090 1700l-508 -211l-99 180l490 262z" />
    <glyph glyph-name="Ycircumflex.ss05" horiz-adv-x="1480" 
d="M1186 731v-280h-275v-451h-342v451h-270v280h205l-484 703h386l260 -383q70 -104 73 -105h2q4 0 74 105l260 383h385l-483 -703h209zM731 1683l-237 -196l-166 168l403 342l402 -342l-164 -168z" />
    <glyph glyph-name="Ydieresis.ss05" horiz-adv-x="1480" 
d="M1186 731v-280h-275v-451h-342v451h-270v280h205l-484 703h386l260 -383q70 -104 73 -105h2q4 0 74 105l260 383h385l-483 -703h209zM1008 1573q-63 0 -108 43q-44 43 -44 106q0 64 44 108t108 44t107 -44q44 -44 44 -108t-44 -106q-44 -43 -107 -43zM456 1573
q-64 0 -109 43q-44 43 -44 106q0 64 45 108q44 44 108 44t107 -44t43 -108t-43 -106q-43 -43 -107 -43z" />
    <glyph glyph-name="Ygrave.ss05" horiz-adv-x="1480" 
d="M1186 731v-280h-275v-451h-342v451h-270v280h205l-484 703h386l260 -383q70 -104 73 -105h2q4 0 74 105l260 383h385l-483 -703h209zM946 1669l-98 -180l-508 211l117 231z" />
    <glyph glyph-name="Zacute.loclPLK" horiz-adv-x="1458" 
d="M143 1112v322h1192v-322l-610 -657q-27 -29 -61 -64t-54 -55l-18 -19l2 -2h6l79 4l88 3h568v-322h-1212v322l639 671q32 35 110 105l23 18l-2 2h-16q-28 -4 -90 -4l-117 -2h-527zM848 1999l250 -139l-252 -371l-213 121z" />
    <glyph glyph-name="cacute.loclPLK" horiz-adv-x="1544" 
d="M815 1122q-176 0 -280 -112q-105 -112 -105 -294q0 -181 108 -291t277 -110q103 0 193 47t135 121l348 -90q-90 -193 -271 -307t-405 -115q-311 0 -527 212t-216 534q0 321 216 533t527 212q209 0 382 -104t269 -277l-350 -92q-49 61 -132 97t-169 36zM911 1999l250 -139
l-252 -371l-213 121z" />
    <glyph glyph-name="dotlessj.ss04" horiz-adv-x="1390" 
d="M313 1434h944v-797q0 -315 -177 -491t-468 -175q-202 1 -364 103t-228 264l338 90q78 -135 254 -135q141 0 222 89q80 89 79 243v487h-600v322z" />
    <glyph glyph-name="i.ss03" horiz-adv-x="1060" 
d="M702 301h287v-301h-917v301h286v832h-278v301h901v-301h-279v-832z" />
    <glyph glyph-name="iacute.ss03" horiz-adv-x="1060" 
d="M702 301h287v-301h-917v301h286v832h-278v301h901v-301h-279v-832zM885 1700l-508 -211l-98 180l489 262z" />
    <glyph glyph-name="icircumflex.ss03" horiz-adv-x="1060" 
d="M702 301h287v-301h-917v301h286v832h-278v301h901v-301h-279v-832zM526 1683l-237 -196l-166 168l403 342l402 -342l-164 -168z" />
    <glyph glyph-name="idieresis.ss03" horiz-adv-x="1060" 
d="M702 301h287v-301h-917v301h286v832h-278v301h901v-301h-279v-832zM803 1573q-63 0 -108 43q-44 43 -44 106q0 64 44 108q43 44 107 44t108 -44t44 -108t-44 -106q-44 -43 -107 -43zM250 1573q-64 0 -108 43t-44 106q0 64 45 108t109 44t106 -44q43 -44 43 -108t-43 -106
q-44 -43 -108 -43z" />
    <glyph glyph-name="idotaccent.ss03" horiz-adv-x="1060" 
d="M702 301h287v-301h-917v301h286v832h-278v301h901v-301h-279v-832zM535 1571q-63 0 -108 44q-44 44 -44 107q0 64 44 108q43 44 107 44t108 -44t44 -108t-44 -107q-44 -44 -107 -44z" />
    <glyph glyph-name="igrave.ss03" horiz-adv-x="1060" 
d="M702 301h287v-301h-917v301h286v832h-278v301h901v-301h-279v-832zM741 1669l-98 -180l-508 211l117 231z" />
    <glyph glyph-name="ij.ss03" horiz-adv-x="2420" 
d="M1944 1434h344v-797q0 -315 -178 -491t-468 -175q-202 1 -364 103t-227 264l338 90q78 -135 253 -135q141 0 222 89q80 89 80 243v809zM702 1133v-832h287v-301h-917v301h286v832h-278v301h901v-301h-279z" />
    <glyph glyph-name="ij.ss03.ss04" horiz-adv-x="2410" 
d="M1333 1434h944v-797q0 -315 -177 -491t-468 -175q-202 1 -364 103t-228 264l338 90q78 -135 254 -135q141 0 221 89t80 243v487h-600v322zM702 1133v-832h287v-301h-917v301h286v832h-278v301h901v-301h-279z" />
    <glyph glyph-name="ij.ss04" horiz-adv-x="2013" 
d="M936 1434h944v-797q0 -315 -177 -491t-468 -175q-203 1 -365 103t-227 264l338 90q78 -135 254 -135q141 0 221 89t80 243v487h-600v322zM160 0v1434h344v-1434h-344z" />
    <glyph glyph-name="imacron.ss03" horiz-adv-x="1060" 
d="M702 301h287v-301h-917v301h286v832h-278v301h901v-301h-279v-832zM981 1833v-264h-901v264h901z" />
    <glyph glyph-name="iogonek.ss03" horiz-adv-x="1060" 
d="M989 0h-500q-85 0 -157 -44t-72 -126q0 -51 37 -87t97 -36t109 32q48 32 75 85l176 -117q-56 -101 -152 -157t-203 -56q-168 0 -274 89t-107 247q0 90 54 172v299h286v832h-278v301h901v-301h-279v-832h287v-301z" />
    <glyph glyph-name="j.ss04" horiz-adv-x="1390" 
d="M313 1434h944v-797q0 -315 -177 -491t-468 -175q-202 1 -364 103t-228 264l338 90q78 -135 254 -135q141 0 222 89q80 89 79 243v487h-600v322z" />
    <glyph glyph-name="jcircumflex.ss04" horiz-adv-x="1390" 
d="M313 1434h944v-797q0 -315 -177 -491t-468 -175q-202 1 -364 103t-228 264l338 90q78 -135 254 -135q141 0 222 89q80 89 79 243v487h-600v322zM754 1683l-238 -196l-166 168l404 342l401 -342l-164 -168z" />
    <glyph glyph-name="n.ss02" horiz-adv-x="1605" 
d="M500 921l4 -169v-752h-344v1434h323l226 -205q389 -352 395 -352h2v8l-2 54v45l-2 119v331h344v-1434h-344v465l-258 219q-68 59 -155 136t-138 122l-51 45h-2v-8z" />
    <glyph glyph-name="nacute.loclPLK" horiz-adv-x="1605" 
d="M1102 1434h344v-1434h-324l-293 399q-55 76 -138 193t-134 188l-53 72h-2v-70l2 -465v-317h-344v1434h323l305 -410q39 -53 118 -163t138 -189l58 -80h2v75l-2 439v328zM901 1999l250 -139l-252 -371l-213 121z" />
    <glyph glyph-name="nacute.loclPLK.ss02" horiz-adv-x="1605" 
d="M500 921l4 -169v-752h-344v1434h323l226 -205q389 -352 395 -352h2v8l-2 54v45l-2 119v331h344v-1434h-344v465l-258 219q-68 59 -155 136t-138 122l-51 45h-2v-8zM901 1999l250 -139l-252 -371l-213 121z" />
    <glyph glyph-name="nacute.ss02" horiz-adv-x="1605" 
d="M500 921l4 -169v-752h-344v1434h323l226 -205q389 -352 395 -352h2v8l-2 54v45l-2 119v331h344v-1434h-344v465l-258 219q-68 59 -155 136t-138 122l-51 45h-2v-8zM1036 1931l117 -231l-508 -211l-98 180z" />
    <glyph glyph-name="ncaron.ss02" horiz-adv-x="1605" 
d="M500 921l4 -169v-752h-344v1434h323l226 -205q389 -352 395 -352h2v8l-2 54v45l-2 119v331h344v-1434h-344v465l-258 219q-68 59 -155 136t-138 122l-51 45h-2v-8zM399 1823l166 168l238 -197l237 197l164 -168l-401 -342z" />
    <glyph glyph-name="ncommaaccent.ss02" horiz-adv-x="1605" 
d="M815 -80q61 0 103 -46t43 -125q-1 -79 -61 -176t-152 -169h-113q49 30 95 106t46 121l29 9l-29 4q-43 4 -76 40q-32 36 -32 93t43 100t104 43zM500 921l4 -169v-752h-344v1434h323l226 -205q389 -352 395 -352h2v8l-2 54v45l-2 119v331h344v-1434h-344v465l-258 219
q-68 59 -155 136t-138 122l-51 45h-2v-8z" />
    <glyph glyph-name="ntilde.ss02" horiz-adv-x="1605" 
d="M500 921l4 -169v-752h-344v1434h323l226 -205q389 -352 395 -352h2v8l-2 54v45l-2 119v331h344v-1434h-344v465l-258 219q-68 59 -155 136t-138 122l-51 45h-2v-8zM1038 1835h267q1 -139 -91 -229t-233 -90q-66 0 -125 32t-108 63q-93 61 -151 7q-26 -25 -26 -64h-266
q0 140 91 230t233 90q86 0 183 -64t136 -63q38 1 64 25t26 63z" />
    <glyph glyph-name="oacute.loclPLK" horiz-adv-x="1632" 
d="M430 718q0 -181 106 -294t280 -113q173 0 280 113q106 113 106 294t-106 293q-106 111 -280 111t-280 -112t-106 -292zM72 717q0 321 216 533t528 212t528 -212t217 -534q0 -322 -216 -533q-217 -212 -529 -212t-528 212t-216 534zM924 1999l250 -139l-252 -371l-213 121
z" />
    <glyph glyph-name="q.ss01" horiz-adv-x="1693" 
d="M430 731q0 -179 110 -285t274 -106t274 106t110 284t-111 286t-275 108t-272 -108q-110 -108 -110 -285zM1585 338h47v-338h-819q-311 0 -526 208t-215 523t215 524t526 209t527 -209t216 -524q0 -229 -118 -405l2 -2h6q28 14 139 14z" />
    <glyph glyph-name="sacute.loclPLK" horiz-adv-x="1257" 
d="M618 1165q-78 1 -122 -31t-43 -75q0 -43 26 -65q62 -51 214 -103t229 -92q185 -94 247 -218q37 -73 37 -161q0 -197 -154 -323t-390 -126t-393 115t-228 320l330 88q31 -90 107 -154t174 -64t144 36t46 80t-16 70q-32 50 -218 113q-185 63 -255 100q-70 36 -131 84
q-124 99 -124 274t154 302t370 127t368 -110t204 -283l-332 -90q-25 90 -95 138q-71 48 -149 48zM756 1999l250 -139l-252 -371l-213 121z" />
    <glyph glyph-name="y.ss05" horiz-adv-x="1480" 
d="M1186 731v-280h-275v-451h-342v451h-270v280h205l-484 703h386l260 -383q70 -104 73 -105h2q4 0 74 105l260 383h385l-483 -703h209z" />
    <glyph glyph-name="yacute.ss05" horiz-adv-x="1480" 
d="M1186 731v-280h-275v-451h-342v451h-270v280h205l-484 703h386l260 -383q70 -104 73 -105h2q4 0 74 105l260 383h385l-483 -703h209zM1090 1700l-508 -211l-99 180l490 262z" />
    <glyph glyph-name="ycircumflex.ss05" horiz-adv-x="1480" 
d="M1186 731v-280h-275v-451h-342v451h-270v280h205l-484 703h386l260 -383q70 -104 73 -105h2q4 0 74 105l260 383h385l-483 -703h209zM731 1683l-237 -196l-166 168l403 342l402 -342l-164 -168z" />
    <glyph glyph-name="ydieresis.ss05" horiz-adv-x="1480" 
d="M1186 731v-280h-275v-451h-342v451h-270v280h205l-484 703h386l260 -383q70 -104 73 -105h2q4 0 74 105l260 383h385l-483 -703h209zM1008 1573q-63 0 -108 43q-44 43 -44 106q0 64 44 108t108 44t107 -44q44 -44 44 -108t-44 -106q-44 -43 -107 -43zM456 1573
q-64 0 -109 43q-44 43 -44 106q0 64 45 108q44 44 108 44t107 -44t43 -108t-43 -106q-43 -43 -107 -43z" />
    <glyph glyph-name="ygrave.ss05" horiz-adv-x="1480" 
d="M1186 731v-280h-275v-451h-342v451h-270v280h205l-484 703h386l260 -383q70 -104 73 -105h2q4 0 74 105l260 383h385l-483 -703h209zM946 1669l-98 -180l-508 211l117 231z" />
    <glyph glyph-name="zacute.loclPLK" horiz-adv-x="1458" 
d="M143 1112v322h1192v-322l-610 -657q-27 -29 -61 -64t-54 -55l-18 -19l2 -2h6l79 4l88 3h568v-322h-1212v322l639 671q32 35 110 105l23 18l-2 2h-16q-28 -4 -90 -4l-117 -2h-527zM848 1999l250 -139l-252 -371l-213 121z" />
    <glyph glyph-name="zero.slsh" horiz-adv-x="1468" 
d="M733 311q152 0 229 112q76 113 76 277t-47 258l-377 -624q51 -23 119 -23zM430 735q0 -166 45 -264l379 627q-51 25 -121 24q-155 0 -229 -110t-74 -277zM733 1462q301 0 482 -214t181 -531t-180 -531q-182 -214 -483 -215q-301 0 -481 214q-180 213 -180 531t180 532
t481 214z" />
    <glyph glyph-name="zero.sups" horiz-adv-x="768" 
d="M385 1184q61 0 99 53t38 132t-38 132t-99 53t-100 -54t-39 -132t39 -131t100 -53zM384 956q-161 0 -262 116t-102 296q0 180 102 297t262 117q161 0 262 -117q102 -117 102 -297t-102 -296t-262 -116z" />
    <glyph glyph-name="four.sups" horiz-adv-x="737" 
d="M408 1284v115l2 63v13h-2q-6 -6 -16 -20q-11 -15 -19 -23l-94 -109l-15 -15q-6 -6 -10 -12t-8 -9t-4 -5l-2 -2l2 -2h4q12 4 33 4l49 2h80zM686 1288v-180h-84v-135h-194v135h-388v149l414 508h168v-477h84z" />
    <glyph glyph-name="five.sups" horiz-adv-x="700" 
d="M348 1501q139 0 220 -73q81 -74 81 -192t-87 -199t-211 -81t-210 67t-100 155l192 53q23 -90 107 -90q49 -1 80 27t31 72t-31 73q-30 29 -90 29t-88 -60l-179 49l78 434h461v-190h-309q-7 -31 -37 -105l2 -2q33 33 90 33z" />
    <glyph glyph-name="six.sups" horiz-adv-x="694" 
d="M332 1139q49 1 79 27t29 71q0 45 -29 72q-30 27 -79 27t-79 -28q-30 -26 -30 -71t30 -71t79 -27zM371 1501q121 0 197 -79q76 -80 75 -198q0 -118 -87 -193t-219 -75t-224 77t-93 204q0 88 33 160t101 162l155 206h223l-204 -274l2 -2q12 12 41 12z" />
    <glyph glyph-name="seven.sups" horiz-adv-x="645" 
d="M20 1575v190h615v-118l-369 -674h-215l254 465q39 75 65 105q26 29 31 36l-2 2h-8q-16 -4 -55 -4l-92 -2h-224z" />
    <glyph glyph-name="eight.sups" horiz-adv-x="647" 
d="M211 1201q0 -39 33 -65t81 -26q47 0 79 27t32 65t-33 65q-33 25 -81 25t-79 -26q-32 -26 -32 -65zM227 1564q0 -32 28 -54t70 -22q43 0 69 22t26 55t-28 53t-68 20t-69 -21q-28 -21 -28 -53zM627 1183q0 -89 -86 -157t-217 -68t-218 68q-86 68 -86 157t46 139t108 71v2
q-41 10 -79 58t-38 128t75 140q75 61 192 61q118 0 192 -60t74 -140q0 -79 -39 -127t-78 -60v-2q61 -21 107 -71t47 -139z" />
    <glyph glyph-name="nine.sups" horiz-adv-x="663" 
d="M326 1602q-49 0 -79 -27t-30 -72t30 -71t79 -27q48 0 78 27q30 28 30 72t-30 71t-78 27zM293 1237q-121 0 -197 79q-76 80 -76 198t88 193t219 75q132 0 224 -77t92 -204q0 -160 -133 -321l-170 -207h-236l238 274l-2 2q-18 -12 -47 -12z" />
    <glyph glyph-name="zero.tf" 
d="M713 1122q-242 0 -242 -406t242 -405q74 0 126 41q117 92 117 365q0 140 -42 257q-24 68 -76 108t-125 40zM713 1462q149 0 267 -63t190 -171q146 -220 145 -512q0 -293 -146 -510q-71 -108 -189 -171t-268 -63t-267 62q-213 115 -295 409q-37 129 -37 273q0 289 144 512
q71 108 189 171t267 63z" />
    <glyph glyph-name="one.tf" 
d="M629 690q0 92 6 203v37h-2l-17 -19q-16 -18 -45 -51t-55 -59l-63 -64l-211 203l491 494h240v-1112h334v-322h-1018v322h340v368z" />
    <glyph glyph-name="two.tf" 
d="M1223 322v-322h-1053v281q98 86 294 260t302 266t106 188q0 68 -50 116t-132 48q-149 0 -215 -180l-317 84q53 178 194 289q141 110 360 110q220 0 364 -133t144 -329t-118 -321q-64 -67 -108 -101q-115 -89 -343 -242l-33 -23l3 -2h10q8 2 24 2l158 6l166 3h244z" />
    <glyph glyph-name="three.tf" 
d="M1243 1038q0 -129 -90 -211t-184 -86v-2q121 0 211 -86t90 -227q0 -199 -153 -327t-374 -128t-383 113t-204 285l311 86q27 -80 89 -128t150 -48t147 45q58 46 58 118t-56 115t-150 43h-121v268h121q90 0 136 41t46 106t-50 105t-132 39q-157 0 -220 -180l-307 82
q48 184 194 293q146 108 370 108t362 -120q139 -120 139 -304z" />
    <glyph glyph-name="four.tf" 
d="M823 557v135l4 187l2 75v13h-2l-22 -29q-87 -117 -117 -152l-192 -229v-2l90 2h237zM1300 557v-299h-153v-258h-324v258h-717v258l758 918h283v-877h153z" />
    <glyph glyph-name="five.tf" 
d="M700 940q229 0 383 -133t154 -342t-154 -351t-372 -142t-366 106t-189 256l315 84q57 -152 215 -152q88 0 145 58t58 149q1 89 -59 147t-144 58q-145 0 -184 -103l-297 82l129 777h815v-322h-567l-45 -203l2 -2q53 33 161 33z" />
    <glyph glyph-name="six.tf" 
d="M724 272q100 0 162 58t62 149t-63 147t-163 56t-162 -57t-62 -149t64 -148t162 -56zM793 963q221 -1 352 -147t131 -360t-161 -350t-401 -135q-240 -1 -403 137q-162 138 -161 369q0 156 62 285t196 305l276 367h371l-381 -508l2 -2q49 39 117 39z" />
    <glyph glyph-name="seven.tf" 
d="M225 1112v322h1098v-199l-692 -1235h-369l436 768q107 184 183 297l32 49l-2 2h-14l-141 -4h-531z" />
    <glyph glyph-name="eight.tf" 
d="M714 598q-96 0 -158 -51t-62 -130t62 -129t160 -50t158 51q62 51 62 130t-62 129t-160 50zM907 1062q0 66 -54 110t-139 44q-84 0 -138 -44q-54 -45 -54 -112t54 -109t139 -42q84 0 138 43t54 110zM1264 408q0 -184 -156 -310t-394 -127q-238 0 -392 126
q-156 126 -156 311q0 137 86 232t197 122v2q-68 12 -143 101t-75 210q-1 166 137 277q138 110 347 110t346 -110t137 -277q0 -121 -74 -210t-143 -101v-2q111 -27 197 -123t86 -231z" />
    <glyph glyph-name="nine.tf" 
d="M654 1159q-99 0 -161 -57q-63 -56 -63 -148t64 -148t162 -56q99 0 162 58q62 58 62 148t-63 146q-64 56 -163 57zM588 471q-236 0 -363 142q-127 143 -127 361t160 353t403 135t405 -137t161 -369q0 -281 -240 -561l-338 -395h-391l442 504l-2 2q-29 -35 -110 -35z" />
    <glyph glyph-name="zero.slsh.tf" 
d="M718 311q69 0 121 41q117 92 117 365q0 98 -18 180l-336 -557q47 -29 116 -29zM713 1122q-242 0 -242 -405q1 -111 21 -195l339 563q-51 37 -118 37zM713 1462q149 0 267 -63t190 -171q146 -220 145 -512q0 -293 -146 -510q-71 -108 -189 -171t-268 -63t-267 62
q-213 115 -295 409q-37 129 -37 273q0 289 144 512q71 108 189 171t267 63z" />
    <glyph glyph-name="zero.slsh.numr" horiz-adv-x="768" 
d="M385 852q61 0 99 53t38 117t-14 100l-160 -264q18 -6 37 -6zM246 1048q0 -66 18 -106l164 272q-16 8 -43 9q-61 -1 -100 -55t-39 -120zM384 1450q161 0 262 -117q102 -117 102 -297t-102 -296t-262 -116q-161 0 -262 116t-102 296q0 180 102 297t262 117z" />
    <glyph glyph-name="zero.slsh.dnom" horiz-adv-x="768" 
d="M385 211q61 0 99 53q38 54 38 118t-14 99l-160 -264q18 -6 37 -6zM246 406q0 -66 18 -105l164 272q-16 8 -43 9q-61 0 -100 -54q-39 -56 -39 -122zM384 809q161 0 262 -117q102 -117 102 -297t-102 -296q-102 -115 -262 -115q-161 0 -262 116t-102 295q0 180 102 297
t262 117z" />
    <glyph glyph-name="zero.slsh.sups" horiz-adv-x="768" 
d="M385 1184q61 0 99 53t38 117t-14 100l-160 -264q18 -6 37 -6zM385 1554q-61 0 -100 -54t-39 -120t18 -106l164 272q-16 8 -43 8zM384 1782q161 0 262 -117q102 -117 102 -297t-102 -296t-262 -116q-161 0 -262 116t-102 296q0 180 102 297t262 117z" />
    <glyph glyph-name="zero.dnom" horiz-adv-x="768" 
d="M385 211q61 0 99 53t38 132t-38 132q-38 54 -99 54t-100 -54t-39 -133q0 -78 39 -131t100 -53zM384 -16q-161 0 -262 116t-102 295q0 180 102 297t262 117q161 0 262 -117q102 -117 102 -297q0 -179 -102 -295t-262 -116z" />
    <glyph glyph-name="one.dnom" horiz-adv-x="542" 
d="M262 365q0 87 12 141v8h-2q-2 0 -15 -21t-58 -61l-41 -37l-138 121l306 277h155v-793h-219v365z" />
    <glyph glyph-name="two.dnom" horiz-adv-x="696" 
d="M551 190h90v-190h-594v143l250 215q6 6 48 41q85 70 85 140q0 29 -23 49q-24 20 -60 20q-37 0 -63 -24t-33 -41q-7 -16 -18 -49l-192 51q23 102 107 183q85 81 208 81t206 -79q83 -78 83 -198t-121 -225q-54 -51 -194 -131l2 -2l6 2q11 0 62 7q52 7 151 7z" />
    <glyph glyph-name="three.dnom" horiz-adv-x="686" 
d="M651 585q0 -89 -52 -133t-105 -44v-2q70 -2 120 -46t52 -120q0 -111 -86 -184q-86 -72 -210 -72t-216 66t-113 165l186 51q23 -98 135 -98q43 0 70 22t27 58q0 38 -29 60t-74 22h-71v151h71q37 0 63 23q25 22 25 52t-24 50q-25 20 -60 21q-95 -1 -124 -101l-183 49
q23 105 107 169t208 64t204 -67q79 -68 79 -156z" />
    <glyph glyph-name="four.dnom" horiz-adv-x="737" 
d="M408 311v115l2 63v13h-2l-7 -6l-12 -18q-8 -11 -16 -19l-94 -109l-15 -15q-6 -7 -10 -12t-8 -9t-4 -5l-2 -2l2 -2l4 2h14l68 4h80zM686 315v-180h-84v-135h-194v135h-388v150l414 508h168v-478h84z" />
    <glyph glyph-name="five.dnom" horiz-adv-x="700" 
d="M649 264q0 -120 -87 -200t-211 -80t-210 66t-100 155l192 53q23 -90 107 -90q49 0 80 28t31 72t-31 72q-30 29 -90 29t-88 -60l-179 49l78 435h461v-191h-309q-10 -40 -37 -104l2 -2q33 33 90 32q139 0 220 -72t81 -192z" />
    <glyph glyph-name="six.dnom" horiz-adv-x="694" 
d="M332 166q49 0 79 27q29 27 29 71t-29 72q-30 26 -79 26t-79 -26t-30 -72t30 -72t79 -26zM371 528q121 0 197 -78t75 -198q0 -119 -87 -194q-87 -74 -219 -74t-224 76t-93 204q0 88 33 160t101 162l155 207h223l-204 -275l2 -2q12 12 41 12z" />
    <glyph glyph-name="seven.dnom" horiz-adv-x="645" 
d="M20 602v191h615v-119l-369 -674h-215l254 465q46 89 92 135l4 6l-2 2l-8 -2h-22l-125 -4h-224z" />
    <glyph glyph-name="eight.dnom" horiz-adv-x="647" 
d="M211 228q0 -38 33 -64t81 -27q47 0 79 27q32 28 32 66t-33 64t-81 26t-79 -28q-32 -26 -32 -64zM227 591q0 -31 28 -53t70 -22q43 0 69 22t26 54t-28 53t-68 21t-69 -22q-28 -22 -28 -53zM627 210q0 -89 -86 -157q-86 -67 -217 -67t-218 67q-86 68 -86 157t46 139t108 71
v2q-41 10 -79 58t-38 128t75 140t192 61q118 0 192 -60q74 -59 74 -139t-39 -128t-78 -60v-2q61 -20 107 -70t47 -140z" />
    <glyph glyph-name="nine.dnom" horiz-adv-x="663" 
d="M326 629q-49 0 -79 -27t-30 -72q0 -46 30 -72t79 -26q48 0 78 27t30 71t-30 72q-30 27 -78 27zM293 264q-121 0 -197 79t-76 198t88 193t219 75q132 0 224 -77t92 -204q0 -160 -133 -321l-170 -207h-236l238 274l-2 2q-18 -12 -47 -12z" />
    <glyph glyph-name="zero.numr" horiz-adv-x="768" 
d="M385 852q61 0 99 53t38 132t-38 132t-99 53t-100 -54t-39 -132t39 -131t100 -53zM384 625q-161 -1 -262 115t-102 296q0 180 102 297t262 117q161 0 262 -117q102 -117 102 -297t-102 -296t-262 -115z" />
    <glyph glyph-name="one.numr" horiz-adv-x="542" 
d="M262 1006q0 87 12 141v8h-2q-2 0 -15 -21t-58 -61l-41 -37l-138 121l306 277h155v-793h-219v365z" />
    <glyph glyph-name="two.numr" horiz-adv-x="696" 
d="M551 831h90v-190h-594v143l250 215q6 6 48 41q85 70 85 140q0 29 -23 49q-24 20 -60 20q-37 -1 -63 -25t-33 -40t-18 -49l-192 51q23 102 107 183q85 81 208 81t206 -79t83 -199t-121 -224q-54 -51 -194 -131l2 -2h6q6 2 16 3t53 7q44 6 144 6z" />
    <glyph glyph-name="three.numr" horiz-adv-x="716" 
d="M651 1226q0 -88 -52 -132t-105 -45v-2q70 -1 120 -45t52 -121q0 -111 -86 -184t-210 -73t-216 66t-113 166l186 51q23 -98 135 -98q43 -1 70 21t27 59t-29 59t-74 23h-71v151h71q37 0 63 23q25 23 25 53t-24 49q-25 20 -60 21q-95 -1 -124 -101l-183 50q23 106 107 169
q84 64 208 64t204 -68q79 -68 79 -156z" />
    <glyph glyph-name="four.numr" horiz-adv-x="737" 
d="M408 952v115l2 63v13h-2l-7 -6l-12 -18q-8 -11 -16 -19l-94 -109l-15 -15q-6 -7 -10 -12l-8 -8t-4 -6l-2 -2l2 -2h4q12 4 33 4l49 2h80zM686 956v-180h-84v-135h-194v135h-388v150l414 508h168v-478h84z" />
    <glyph glyph-name="five.numr" horiz-adv-x="700" 
d="M649 905q0 -119 -87 -199t-211 -81q-124 1 -210 67t-100 154l192 53q23 -90 107 -90q49 0 80 28q31 27 31 71t-31 73q-30 29 -90 29t-88 -60l-179 49l78 435h461v-191h-309q-10 -40 -37 -104l2 -2q33 33 90 32q139 -1 220 -73t81 -191z" />
    <glyph glyph-name="six.numr" horiz-adv-x="694" 
d="M332 807q49 0 79 27q29 28 29 72t-29 71q-30 27 -79 27t-79 -27t-30 -72t30 -71t79 -27zM371 1169q121 -1 197 -79t75 -197q0 -119 -87 -194t-219 -75t-224 78q-92 76 -93 203q0 88 33 160t101 162l155 207h223l-204 -275l2 -2q12 12 41 12z" />
    <glyph glyph-name="seven.numr" horiz-adv-x="645" 
d="M20 1243v191h615v-119l-369 -674h-215l254 465q46 89 92 135l4 6l-2 2h-8q-16 -4 -55 -4l-92 -2h-224z" />
    <glyph glyph-name="eight.numr" horiz-adv-x="647" 
d="M211 869q0 -39 33 -65t81 -26q47 0 79 27t32 65t-33 65q-33 26 -81 26t-79 -27q-32 -27 -32 -65zM227 1232q0 -32 28 -54t70 -21q43 0 69 22q26 23 26 55t-28 52t-68 20t-69 -20q-28 -22 -28 -54zM627 851q0 -89 -86 -157t-217 -68t-218 68q-86 68 -86 157t46 139t108 71
v2q-41 10 -79 58t-38 128q0 81 75 141t192 60q118 0 192 -60t74 -140t-39 -127q-39 -48 -78 -60v-2q61 -21 107 -71t47 -139z" />
    <glyph glyph-name="nine.numr" horiz-adv-x="663" 
d="M326 1270q-49 0 -79 -27t-30 -72t30 -71t79 -27q48 0 78 27q30 28 30 72t-30 71t-78 27zM20 1182q0 120 88 194t219 74q132 0 224 -77t92 -204q0 -160 -133 -321l-170 -207h-236l238 274l-2 3q-18 -12 -47 -13q-121 0 -197 79t-76 198z" />
    <glyph glyph-name="dollar.tf" 
d="M700 1165q-78 1 -122 -31t-43 -75q0 -43 26 -65q62 -51 214 -103t229 -92q185 -94 247 -218q37 -73 37 -161q0 -160 -103 -275t-282 -155v-174h-344v176q-317 78 -436 414l330 88q31 -90 107 -154q77 -64 174 -64t144 36q46 36 46 80t-16 70q-32 50 -218 113
q-185 63 -255 100q-70 36 -131 84q-124 99 -124 277q0 139 104 253t275 155v174h344v-182q137 -42 235 -140t138 -227l-332 -90q-25 90 -95 138q-71 48 -149 48z" />
    <glyph glyph-name="percent.tf" 
d="M1006 211q61 0 99 53t38 132t-38 132q-38 54 -99 54q-60 0 -100 -54t-40 -133q0 -78 40 -131t100 -53zM406 852q61 0 99 53t38 132t-38 132t-99 53q-60 0 -100 -54t-40 -132t40 -131t100 -53zM1006 809q160 0 261 -117t101 -297t-101 -296q-101 -115 -253 -115t-248 92
t-119 239l-141 -315h-221l299 672q-78 -47 -178 -47q-162 0 -264 115q-101 116 -101 296t101 297q102 117 258 117t254 -103t112 -266l158 353h221l-293 -660q70 35 154 35z" />
    <glyph glyph-name="cent.tf" 
d="M866 -29h-274v199q-178 48 -294 194t-116 343t116 343t294 193v219h274v-217q123 -29 220 -109t149 -192l-301 -78q-74 98 -193 98t-181 -68q-62 -70 -62 -190t62 -189t173 -68q152 0 215 131l301 -82q-47 -123 -149 -211t-234 -119v-197z" />
    <glyph glyph-name="sterling.tf" 
d="M1274 322v-322h-1094v322q82 14 109 59t16 143l-2 31h-123v268h96l-16 172q-18 183 129 323t364 144t392 -164q100 -96 135 -239l-289 -80q-66 188 -231 180q-78 -4 -121 -61t-35 -135l14 -140h386v-268h-361q18 -178 -63 -242l2 -2h8q8 2 22 2l139 6l142 3h381z" />
    <glyph glyph-name="currency.tf" 
d="M716 954q-106 0 -181 -72q-74 -72 -74 -186q0 -112 73 -184q72 -72 180 -72t182 72t73 186q1 114 -73 184q-74 72 -180 72zM1274 691q0 -165 -92 -306l135 -135l-168 -168l-137 137q-137 -88 -300 -88t-296 86l-135 -135l-168 168l133 133q-92 145 -92 307t86 301
l-140 139l168 168l140 -139q133 92 301 92t313 -92l139 139l168 -168l-141 -141q86 -133 86 -298z" />
    <glyph glyph-name="yen.tf" 
d="M1292 969v-221h-329l-43 -62h372v-221h-407v-465h-342v465h-406v221h371l-43 62h-328v221h176l-319 465h385l260 -383q70 -104 74 -105h2q4 0 73 105l261 383h385l-320 -465h178z" />
    <glyph glyph-name="Euro.tf" 
d="M744 -25q-230 1 -404 133t-242 357h-98v221h63v62h-61v221h96q68 225 242 357t397 132t382 -100t247 -279l-334 -82q-43 72 -122 110t-175 38q-203 0 -286 -176h333v-221h-381v-62h379v-221h-329q80 -172 284 -172q106 0 196 49q89 49 132 135l326 -82
q-82 -195 -249 -307q-166 -112 -396 -113z" />
    <glyph glyph-name="uni20B9.tf" 
d="M1237 1174h-254q23 -39 39 -93h215v-250h-213q-31 -123 -117 -209t-217 -126l354 -496h-391l-329 477v250h163q109 0 164 104h-430v250h430q-55 92 -164 93h-266v260h1016v-260z" />
    <glyph glyph-name="colon.case" horiz-adv-x="567" 
d="M284 563q68 0 114 -47t46 -114q0 -68 -46 -114t-114 -46q-67 0 -114 47t-47 113t47 114q47 47 114 47zM284 1157q68 0 114 -47t46 -114q0 -68 -46 -114t-114 -46q-67 0 -114 47t-47 113t47 114q47 47 114 47z" />
    <glyph glyph-name="semicolon.case" horiz-adv-x="604" 
d="M160 398q0 62 47 110q47 47 115 47t114 -50t45 -137t-67 -195t-166 -187h-125q53 33 105 118t51 134l30 8l-30 4q-47 6 -83 46t-36 102zM321 1147q67 0 113 -47t47 -114q-1 -67 -47 -114t-113 -47t-114 47t-47 114t47 114t114 47z" />
    <glyph glyph-name="apple" horiz-adv-x="1585" 
d="M1047 -2q-12 0 -13 12q0 12 13 13q12 -1 12 -13t-12 -12zM1182 54q0 -34 24 -34t23 34q1 34 -23 34t-24 -34zM1300 0h-30l8 109h39l16 -70l19 70h39l4 -109h-29v82l-23 -80h-20l-23 80v-82zM901 109h31l14 -74l12 74h31l12 -74l15 74h28l-26 -109h-33l-12 72l-15 -72h-30
zM850 43v-20h43v-23h-74v109h74v-23h-43v-20h39v-23h-39zM803 0h-31v109h31v-109zM659 109h33l19 -80l20 80h31l-35 -109h-33zM584 68h37v41h28v-109h-28v43h-37v-43h-31v109h31v-41zM459 86v23h84v-23h-29v-86h-27v86h-28zM352 109h37l33 -66v66h27v-109h-31l-39 72v-72
h-27v109zM307 0h-28v41l-35 68h35l14 -48l16 48h33l-35 -68v-41zM1262 53q0 -55 -56 -55t-55 55q0 25 15 41t40 16q24 0 40 -16t16 -41zM1061 51q0 58 59 60q20 0 29 -5l-8 -24q-6 6 -19 6q-30 0 -30 -34t30 -34q12 0 19 7l6 -25q-12 -4 -29 -4q-57 0 -57 53zM202 88
q-11 0 -12 -8q0 -6 26 -15t26 -32q0 -35 -49 -35q-20 0 -33 6l8 25q25 -9 34 -9t9 11q-1 6 -25 14t-24 31q0 35 43 35q20 0 31 -7l-7 -24q-16 8 -27 8zM791 524l184 -162q55 -10 272 -14q-6 193 -14 266l-166 187l166 182q6 43 14 272q-199 -4 -270 -14l-186 -166l-181 166
q-72 10 -272 14q8 -231 14 -272l162 -182l-162 -183q-6 -43 -14 -270q219 4 270 14zM1335 168q-354 0 -425 26q-22 7 -38 23l-81 68l-78 -68q-16 -16 -39 -24q-72 -25 -426 -25h-88v88q0 361 24 427q8 22 23 38l49 55l20 25l-69 78q-14 18 -23 40q-24 66 -24 424v91h88
q345 0 430 -26q23 -7 39 -22l78 -71l34 33l41 34q18 16 40 24q66 26 425 28h90v-91q0 -354 -26 -425q-8 -23 -25 -39l-45 -54l-22 -24l73 -86q12 -19 20 -39t16 -124q9 -104 9 -292v-92h-90z" />
    </font>
</defs>
</svg>
